<?xml version="1.0" standalone="no"?>
<!DOCTYPE svg PUBLIC "-//W3C//DTD SVG 1.1//EN" "http://www.w3.org/Graphics/SVG/1.1/DTD/svg11.dtd" >
<svg>
<metadata>
Created by FontForge 20090914 at Thu Mar 17 16:15:50 2022
 By www-data
Copyright (c) 2011 JM Sole (info@jmsole.cl), with Reserved Font Name "Noticia Text".
</metadata>
<defs>
<font id="NoticiaText-Bold" horiz-adv-x="1266" >
  <font-face 
    font-family="Noticia Text"
    font-weight="700"
    font-stretch="normal"
    units-per-em="2048"
    panose-1="2 0 8 3 6 0 0 2 0 4"
    ascent="1638"
    descent="-410"
    x-height="1085"
    cap-height="1353"
    bbox="-988 -593 2696 2202"
    underline-thickness="51"
    underline-position="-52"
    unicode-range="U+0020-U+FB02"
  />
<missing-glyph horiz-adv-x="1501" 
d="M130 1540h1241v-1975h-1241v1975zM842 552l343 -798v1597zM658 552l-342 799v-1597zM750 338l-259 -604h519zM750 766l260 605h-519z" />
    <glyph glyph-name=".notdef" horiz-adv-x="1501" 
d="M130 1540h1241v-1975h-1241v1975zM842 552l343 -798v1597zM658 552l-342 799v-1597zM750 338l-259 -604h519zM750 766l260 605h-519z" />
    <glyph glyph-name="space" unicode=" " horiz-adv-x="550" 
 />
    <glyph glyph-name="exclam" unicode="!" horiz-adv-x="642" 
d="M170 99c0 27.333 3.16699 53.498 9.5 78.498s15 47 26 66s23.833 34 38.5 45s30.334 16.5 47.001 16.5c28.667 0 55.5 -3.33301 80.5 -10s46.667 -15.5 65 -26.5s32.833 -24 43.5 -39s16 -30.833 16 -47.5c0 -27.333 -3.16699 -53.166 -9.5 -77.499s-15 -46 -26 -65
s-24 -34 -39 -45s-30.833 -16.5 -47.5 -16.5c-28.667 0 -55.334 3.16699 -80.001 9.5s-46.167 15 -64.5 26s-32.833 23.833 -43.5 38.5s-16 30.334 -16 47.001zM175 1540l307 22l20 -22l-73 -1130h-181z" />
    <glyph glyph-name="quotedbl" unicode="&#x22;" horiz-adv-x="664" 
d="M80 1540h216v-42l-63 -361h-153v403zM358 1540h216v-42l-63 -361h-153v403z" />
    <glyph glyph-name="numbersign" unicode="#" horiz-adv-x="1387" 
d="M770 286h-286l-40 -286h-195v20l37 266h-196v177h221l61 426h-216v177h241l41 287h195v-20l-38 -267h286l41 287h195v-20l-38 -267h188v-177h-213l-61 -426h208v-177h-233l-40 -286h-195v20zM509 463h286l61 426h-286z" />
    <glyph glyph-name="dollar" unicode="$" horiz-adv-x="1130" 
d="M664 813c154 -86.667 260.166 -162.832 318.499 -228.499s87.5 -145.5 87.5 -239.5c0 -116.667 -48.667 -207 -146 -271c-70 -46 -158 -75.333 -264 -88v-212h-165v204c-66.667 1.33301 -131 7 -193 17c-71.333 11.333 -132 26.666 -182 45.999l-21 279l167 25l84 -197
c27.333 -6.66699 57.333 -12 90 -16c18 -2 36.333 -3.33301 55 -4v447c-6 3.33301 -12 7 -18 11c-170 98 -278.667 177 -326 237s-71.333 130.333 -72 211c0 108 47 191.667 141 251c71.333 45.333 163 73.333 275 84v193h165v-188c50.667 -2 100.334 -6.33301 149.001 -13
c65.333 -9.33301 123.333 -22 174 -38l21 -290l-155 -22l-83 197c-26 6 -54 10.333 -84 13l-22 2v-408zM739.999 155.002c8 16 15.001 36 21.001 60s9 47.667 9 71c0 53.333 -21 100 -63 140c-12.667 12 -28.334 25 -47.001 39v-328c29.333 4.66699 56 10.667 80 18z
M398 1198c-5.33301 -17.333 -9.83398 -36.6689 -13.501 -58.002s-5.5 -41.666 -5.5 -60.999c0 -42 16.333 -78.667 49 -110c14 -13.333 36.333 -30.666 67 -51.999v302c-33.333 -4.66699 -65.666 -11.667 -96.999 -21z" />
    <glyph glyph-name="percent" unicode="%" horiz-adv-x="1693" 
d="M1197 1353h215v-20l-966 -1333h-215v20zM90 1059c0 43.333 8.33301 84.166 25 122.499s39.167 71.833 67.5 100.5s61.666 51.334 99.999 68.001s79.5 25 123.5 25c43.333 0 84.166 -8.33301 122.499 -25s71.833 -39.334 100.5 -68.001s51.334 -62.167 68.001 -100.5
s25 -79.166 25 -122.499c0 -44 -8.33301 -85.167 -25 -123.5s-39.334 -71.666 -68.001 -99.999s-62.167 -50.833 -100.5 -67.5s-79.166 -25 -122.499 -25c-44 0 -85.167 8.33301 -123.5 25s-71.666 39.167 -99.999 67.5s-50.833 61.666 -67.5 99.999s-25 79.5 -25 123.5z
M279 1059c0 -55.333 11.333 -94.668 34 -118.001s53.667 -35 93 -35c16.667 0 32.667 2.83301 48 8.5s28.833 14.5 40.5 26.5s20.834 27.667 27.501 47s10 43 10 71s-3.33301 51.667 -10 71s-15.834 35 -27.501 47s-25.167 20.833 -40.5 26.5s-31.333 8.5 -48 8.5
c-39.333 0 -70.333 -11.667 -93 -35s-34 -62.666 -34 -117.999zM921 293.998c0 43.333 8.33301 84.166 25 122.499s39.167 71.833 67.5 100.5s61.666 51.334 99.999 68.001s79.5 25 123.5 25c43.333 0 84.166 -8.33301 122.499 -25s71.833 -39.334 100.5 -68.001
s51.334 -62.167 68.001 -100.5s25 -79.166 25 -122.499c0 -44 -8.33301 -85.167 -25 -123.5s-39.334 -71.666 -68.001 -99.999s-62.167 -50.833 -100.5 -67.5s-79.166 -25 -122.499 -25c-44 0 -85.167 8.33301 -123.5 25s-71.666 39.167 -99.999 67.5
s-50.833 61.666 -67.5 99.999s-25 79.5 -25 123.5zM1110 293.998c0 -55.333 11.333 -94.668 34 -118.001s53.667 -35 93 -35c16.667 0 32.667 2.83301 48 8.5s28.833 14.5 40.5 26.5s20.834 27.667 27.501 47s10 43 10 71s-3.33301 51.667 -10 71s-15.834 35 -27.501 47
s-25.167 20.833 -40.5 26.5s-31.333 8.5 -48 8.5c-39.333 0 -70.333 -11.667 -93 -35s-34 -62.666 -34 -117.999z" />
    <glyph glyph-name="ampersand" unicode="&#x26;" horiz-adv-x="1581" 
d="M1312 529c0 -60.667 -12.0039 -118.497 -36.0039 -173.497s-59 -105.833 -105 -152.5c35.333 -24 69.333 -42.667 102 -56s64.334 -20 95.001 -20c28 0 54.167 1.66699 78.5 5s46.166 7.33301 65.499 12c22 4.66699 42.333 10.334 61 17.001v-116
c-18 -12.667 -39 -24 -63 -34c-20.667 -8.66699 -45.834 -16.334 -75.501 -23.001s-63.5 -10 -101.5 -10c-54.667 0 -109.667 8.66699 -165 26s-111.333 42 -168 74c-60.667 -32 -128.5 -56.667 -203.5 -74s-156.167 -26 -243.5 -26
c-83.333 0 -157.666 5.83301 -222.999 17.5s-120.666 29.5 -165.999 53.5s-80 54.667 -104 92s-36 81.666 -36 132.999v22c0 46 9 89.167 27 129.5s41.833 77.333 71.5 111s63.667 64.167 102 91.5s77.5 51.666 117.5 72.999c-29.333 33.333 -53.666 64.5 -72.999 93.5
s-34.833 56 -46.5 81s-20 48.667 -25 71s-7.5 43.5 -7.5 63.5v19c0 46 11 89.833 33 131.5s54 78.5 96 110.5s93.667 57.333 155 76s131.666 28 210.999 28c64.667 0 121.334 -6.33301 170.001 -19s89.334 -30.5 122.001 -53.5s57.167 -50.5 73.5 -82.5
s24.5 -67.667 24.5 -107v-22c0 -40 -7.66699 -76.833 -23 -110.5s-38.833 -66.667 -70.5 -99s-72.167 -64.833 -121.5 -97.5s-108 -67.667 -176 -105l154.5 -169.5c51.667 -56.333 102.834 -108.833 153.501 -157.5c13.333 26.667 23.333 55.167 30 85.5
s10 63.166 10 98.499v6l-163 34l20 118l423 22v-187zM572.996 127.003c101.333 0 188.998 20.3301 262.998 60.9971c-64.667 50 -128.5 106.5 -191.5 169.5s-125.5 130.833 -187.5 203.5c-20 -11.333 -38.333 -25.166 -55 -41.499s-30.667 -34.166 -42 -53.499
s-20.166 -39.666 -26.499 -60.999s-9.5 -43 -9.5 -65v-13c0 -66 21.833 -115.833 65.5 -149.5s104.834 -50.5 183.501 -50.5zM774.994 1078c0 46.667 -13.334 83 -40.001 109s-60.667 39 -102 39c-16 0 -31 -1.66699 -45 -5s-26 -6.66602 -36 -9.99902
c-12 -4.66699 -22.667 -9.66699 -32 -15c-6 -10.667 -11 -22.334 -15 -35.001c-4 -11.333 -7.5 -24.833 -10.5 -40.5s-4.5 -33.5 -4.5 -53.5v-11c0 -52 7 -97.5 21 -136.5s34 -75.167 60 -108.5c68.667 44 119.834 86 153.501 126s50.5 82.667 50.5 128v13z" />
    <glyph glyph-name="quotesingle" unicode="'" horiz-adv-x="386" 
d="M70 1540h216v-42l-63 -361h-153v403z" />
    <glyph glyph-name="parenleft" unicode="(" horiz-adv-x="743" 
d="M403 543c0 -75.333 4.16699 -147.166 12.5 -215.499s19.166 -132.833 32.499 -193.5s28.833 -117.334 46.5 -170.001s35.5 -101 53.5 -145c42 -102.667 90.333 -194.334 145 -275.001l-113 -60c-88 82.667 -166.333 178 -235 286
c-29.333 46 -58.166 96.833 -86.499 152.5s-53.5 116 -75.5 181s-39.667 134.167 -53 207.5s-20 150.666 -20 231.999c0 80.667 6.66699 157.834 20 231.501s31 142.834 53 207.501s47.167 124.834 75.5 180.501s57.166 106.5 86.499 152.5
c68.667 107.333 147 202.666 235 285.999l113 -60c-54.667 -80 -103 -171.333 -145 -274c-18 -44 -35.833 -92.333 -53.5 -145s-33.167 -109.5 -46.5 -170.5s-24.166 -125.667 -32.499 -194s-12.5 -139.833 -12.5 -214.5z" />
    <glyph glyph-name="parenright" unicode=")" horiz-adv-x="743" 
d="M340 543c0 74.667 -4.16699 146.167 -12.5 214.5s-19.333 133 -33 194s-29.167 117.833 -46.5 170.5s-35 101 -53 145c-42.667 102.667 -91 194 -145 274l113 60c87.333 -83.333 165.666 -178.666 234.999 -285.999c29.333 -46 58 -96.833 86 -152.5
s53 -115.834 75 -180.501s39.833 -133.834 53.5 -207.501s20.5 -150.834 20.5 -231.501c0 -81.333 -6.83301 -158.666 -20.5 -231.999s-31.5 -142.5 -53.5 -207.5s-47 -125.333 -75 -181s-56.667 -106.5 -86 -152.5c-69.333 -108 -147.666 -203.333 -234.999 -286l-113 60
c54 80.667 102.333 172.334 145 275.001c18 44 35.667 92.333 53 145s32.833 109.334 46.5 170.001s24.667 125.167 33 193.5s12.5 140.166 12.5 215.499z" />
    <glyph glyph-name="asterisk" unicode="*" horiz-adv-x="895" 
d="M515 1066l39 -237v-57h-213v57l39 236l-187 -152l-48 -28l-104 183l42 26l229 87l-225 86l-47 29l105 183l48 -28l187 -153l-39 237v57h213v-57l-39 -236l187 152l48 28l104 -183l-47 -29l-224 -85l225 -85l47 -29l-105 -183l-48 28z" />
    <glyph glyph-name="plus" unicode="+" horiz-adv-x="1103" 
d="M655 1005v-308h288v-207h-288v-308h-207v308h-288v207h288v308h207z" />
    <glyph glyph-name="comma" unicode="," horiz-adv-x="596" 
d="M100 98c0 28 3.3291 54.499 9.99609 79.499s15.5 47 26.5 66s23.833 34 38.5 45s30.334 16.5 47.001 16.5c15.333 0 31.333 -1.16699 48 -3.5s33 -6 49 -11s31 -11.667 45 -20s26.667 -18.166 38 -29.499c6.66699 -7.33301 13.334 -16.166 20.001 -26.499
s12.5 -23 17.5 -38s9 -32.833 12 -53.5s4.5 -45 4.5 -73c0 -40 -3 -78.833 -9 -116.5s-18.167 -75.834 -36.5 -114.501s-44.333 -78.834 -78 -120.501s-78.167 -86.5 -133.5 -134.5l-82 96c34 28.667 62.667 55.5 86 80.5s42 48.667 56 71s24 43 30 62s9 36.833 9 53.5
c0 16 -6.16699 28.333 -18.5 37s-28.166 15.334 -47.499 20.001c-39.333 10.667 -71.166 26 -95.499 46s-36.5 42.667 -36.5 68z" />
    <glyph glyph-name="hyphen" unicode="-" horiz-adv-x="1053" 
d="M160 697h733v-207h-733v207z" />
    <glyph glyph-name="period" unicode="." horiz-adv-x="566" 
d="M100 99c0 27.333 3.16699 53.4971 9.5 78.4971s15 47 26 66s23.833 34 38.5 45s30.334 16.5 47.001 16.5c28.667 0 55.5 -3.16699 80.5 -9.5s46.667 -15.166 65 -26.499s32.833 -24.5 43.5 -39.5s16 -30.833 16 -47.5c0 -27.333 -3.16699 -53.166 -9.5 -77.499
s-15 -46 -26 -65s-24 -34 -39 -45s-30.833 -16.5 -47.5 -16.5c-28.667 0 -55.334 3.16699 -80.001 9.5s-46.167 15 -64.5 26s-32.833 23.833 -43.5 38.5s-16 30.334 -16 47.001z" />
    <glyph glyph-name="slash" unicode="/" horiz-adv-x="883" 
d="M638 1540h215v-20l-568 -1815h-215v20z" />
    <glyph glyph-name="zero" unicode="0" horiz-adv-x="1236" 
d="M591 -22c-168.667 0 -295.332 44.167 -379.999 132.5s-127 223.833 -127 406.5v105c0 243.333 47 429.666 141 558.999s228.333 194 403 194c182.667 0 315.667 -44 399 -132s125 -224 125 -408v-104c0 -255.333 -45.333 -444.666 -136 -567.999
s-232.334 -185 -425.001 -185zM848.002 782c0 146.667 -17 257.333 -51 332s-93.667 112 -179 112c-80.667 0 -139.167 -39.833 -175.5 -119.5s-54.5 -211.167 -54.5 -394.5v-140c0 -151.333 18 -263.333 54 -336s94 -109 174 -109c82.667 0 142 40.667 178 122
s54 212.333 54 393v140z" />
    <glyph glyph-name="one" unicode="1" horiz-adv-x="826" 
d="M101 118l193 34v1004h-236l-10 103l345 94h201v-1201l192 -34l-20 -118h-645z" />
    <glyph glyph-name="two" unicode="2" horiz-adv-x="1080" 
d="M699 1040c0 60.667 -15.8301 106.831 -47.4971 138.498s-78.167 47.5 -139.5 47.5c-39.333 0 -76.166 -3.33301 -110.499 -10s-64.5 -15 -90.5 -25l-60 -213l-159 11v281c72 33.333 146.833 59.166 224.5 77.499s153.167 27.5 226.5 27.5
c143.333 0 255.166 -29.5 335.499 -88.5s120.5 -142.167 120.5 -249.5c0 -61.333 -17 -124.166 -51 -188.499s-79.333 -130.166 -136 -197.499s-121.334 -136.166 -194.001 -206.499l-225 -214.5l4 -10h377l82 193l154 -23l-23 -390h-931v185l256.5 254
c78.333 78 146.166 151.5 203.499 220.5s102.166 134.667 134.499 197s48.5 123.5 48.5 183.5z" />
    <glyph glyph-name="three" unicode="3" horiz-adv-x="1013" 
d="M440 -22c-64.667 0 -132.498 9.16504 -203.498 27.498s-132.5 40.5 -184.5 66.5v278l156 12l55 -202c21.333 -8 49.666 -15.5 84.999 -22.5s71 -10.5 107 -10.5c63.333 0 113 22.5 149 67.5s54 109.5 54 193.5c0 82.667 -20.667 146.5 -62 191.5s-95 67.5 -161 67.5h-123
v149h113c62 0 108.333 19.833 139 59.5s46 96.834 46 171.501c0 65.333 -14.667 114.833 -44 148.5s-73.333 50.5 -132 50.5c-23.333 0 -47.333 -1.83301 -72 -5.5s-48.667 -9.16699 -72 -16.5l-56 -203l-155 12v288c54 20.667 116 38.167 186 52.5s138.333 21.5 205 21.5
c140 0 248.333 -28.167 325 -84.5s115 -136.166 115 -239.499c0 -68.667 -18.167 -130.667 -54.5 -186s-92.5 -99.333 -168.5 -132c79.333 -22 144.166 -62.5 194.499 -121.5s75.5 -127.833 75.5 -206.5c0 -136 -47.333 -241.167 -142 -315.5s-219.667 -111.5 -375 -111.5z
" />
    <glyph glyph-name="four" unicode="4" horiz-adv-x="1053" 
d="M380 118l203 34v170h-551l-30 122l588 909h294l-577 -872l5 -10h271v275h300v-275h142l24 -120l-166 -34v-165l162 -34l-20 -118h-625z" />
    <glyph glyph-name="five" unicode="5" horiz-adv-x="1078" 
d="M494 -22c-66.667 0 -136.997 8.16699 -210.997 24.5s-141.667 37.5 -203 63.5v277l165 8l61 -194c25.333 -8.66699 55 -15.834 89 -21.501s69 -8.5 105 -8.5c69.333 0 124.333 24.333 165 73s61 118 61 208c0 83.333 -21.667 147 -65 191s-107.333 66 -192 66
c-45.333 0 -91 -5.66699 -137 -17s-84.333 -24.333 -115 -39l-113 97l37 647h813v-220h-644l-20 -362c33.333 14.667 72.5 26.834 117.5 36.501s94.167 14.5 147.5 14.5c145.333 0 260.166 -34 344.499 -102s126.5 -164.333 126.5 -289
c-0.666992 -138 -51.834 -248 -153.501 -330s-227.834 -123 -378.501 -123z" />
    <glyph glyph-name="six" unicode="6" horiz-adv-x="1111" 
d="M74 572c0 234.667 69.3311 427.167 207.998 577.5s305.334 225.5 500.001 225.5c28.667 0 60.167 -1.83301 94.5 -5.5s66.833 -9.16699 97.5 -16.5v-136c-30 2.66699 -59 4.83398 -87 6.50098s-55.667 2.5 -83 2.5c-118.667 0 -219.167 -49 -301.5 -147
s-123.5 -217.333 -123.5 -358l10 -4c40.667 28.667 82.5 49.167 125.5 61.5s92.5 18.5 148.5 18.5c116.667 0 214.167 -34.667 292.5 -104s117.5 -158 117.5 -266v-29c0 -128 -45.167 -230 -135.5 -306s-211.166 -114 -362.499 -114c-164 0 -288.5 44.667 -373.5 134
s-127.5 218.666 -127.5 387.999v72zM772.998 388c0 79.333 -19.668 142.501 -59.001 189.501s-91 70.5 -155 70.5c-27.333 0 -56.666 -4.33301 -87.999 -13s-62 -21.334 -92 -38.001v-76c0 -126 18 -223.167 54 -291.5s89 -102.5 159 -102.5
c57.333 0 101.833 21.5 133.5 64.5s47.5 103.167 47.5 180.5v16z" />
    <glyph glyph-name="seven" unicode="7" horiz-adv-x="951" 
d="M211 930l-165 8v415h923v-117l-490 -1236h-289l498 1123l-6 10h-418z" />
    <glyph glyph-name="eight" unicode="8" horiz-adv-x="1080" 
d="M42 292c0 80 26.166 150.999 78.499 212.999s122.833 110 211.5 144c-84 42 -144.833 89 -182.5 141s-56.5 117.333 -56.5 196c0 113.333 43 206.5 129 279.5s202.667 109.5 350 109.5c132 0 234.833 -25.333 308.5 -76s110.5 -122 110.5 -214
c0 -62 -22.833 -120.667 -68.5 -176s-112.167 -102.333 -199.5 -141c101.333 -40 179.833 -91.167 235.5 -153.5s83.5 -139.166 83.5 -230.499c0 -121.333 -47.333 -219.333 -142 -294s-221.667 -112 -381 -112c-153.333 0 -271.166 27.333 -353.499 82
s-123.5 132 -123.5 232zM436.999 601.999c-27.333 -28 -50.001 -63.5 -68.001 -106.5s-27 -92.833 -27 -149.5c0 -70 17 -124 51 -162s82.667 -57 146 -57c64.667 0 114.667 18.5 150 55.5s53 87.833 53 152.5c0 57.333 -18.667 103.5 -56 138.5
s-102.666 70.833 -195.999 107.5zM391.998 1043c0 -58.667 17.001 -105.333 51.001 -140s90.667 -66 170 -94c25.333 28 44.666 62.833 57.999 104.5s20 88.834 20 141.501c0 55.333 -13 97.666 -39 126.999s-60 44 -102 44c-46.667 0 -84.667 -17 -114 -51
s-44 -78 -44 -132z" />
    <glyph glyph-name="nine" unicode="9" horiz-adv-x="1088" 
d="M342 941c0 -77.333 18.332 -139.833 54.999 -187.5s83.334 -71.5 140.001 -71.5c28.667 0 59.5 5 92.5 15s63.5 23 91.5 39v62c0 138.667 -17.5 244.667 -52.5 318s-85.5 110 -151.5 110c-59.333 0 -103.333 -23.333 -132 -70s-43 -113 -43 -199v-16zM329.999 -22
c-29.333 0 -63.668 2.00098 -103.001 6.00098s-76.666 9.66699 -111.999 17v136c21.333 -2.66699 47.166 -5 77.499 -7s60.166 -3 89.499 -3c131.333 0 237.333 45.333 318 136s121 207 121 349l-10 4c-33.333 -26 -73.166 -46.333 -119.499 -61s-99.166 -22 -158.499 -22
c-109.333 0 -201.833 34 -277.5 102s-113.5 157 -113.5 267v29c0 136 43.333 244 130 324s206.667 120 360 120c161.333 0 283.333 -44.333 366 -133s124 -221.334 124 -398.001v-78c0 -250.667 -60.5 -444.667 -181.5 -582s-291.167 -206 -510.5 -206z" />
    <glyph glyph-name="colon" unicode=":" horiz-adv-x="566" 
d="M100 99c0 27.333 3.16699 53.4971 9.5 78.4971s15 47 26 66s23.833 34 38.5 45s30.334 16.5 47.001 16.5c28.667 0 55.5 -3.16699 80.5 -9.5s46.667 -15.166 65 -26.499s32.833 -24.5 43.5 -39.5s16 -30.833 16 -47.5c0 -27.333 -3.16699 -53.166 -9.5 -77.499
s-15 -46 -26 -65s-24 -34 -39 -45s-30.833 -16.5 -47.5 -16.5c-28.667 0 -55.334 3.16699 -80.001 9.5s-46.167 15 -64.5 26s-32.833 23.833 -43.5 38.5s-16 30.334 -16 47.001zM100 809.997c0 27.333 3.16699 53.4971 9.5 78.4971s15 47 26 66s23.833 34 38.5 45
s30.334 16.5 47.001 16.5c28.667 0 55.5 -3.16699 80.5 -9.5s46.667 -15.166 65 -26.499s32.833 -24.5 43.5 -39.5s16 -30.833 16 -47.5c0 -27.333 -3.16699 -53.166 -9.5 -77.499s-15 -46 -26 -65s-24 -34 -39 -45s-30.833 -16.5 -47.5 -16.5
c-28.667 0 -55.334 3.16699 -80.001 9.5s-46.167 15 -64.5 26s-32.833 23.833 -43.5 38.5s-16 30.334 -16 47.001z" />
    <glyph glyph-name="semicolon" unicode=";" horiz-adv-x="596" 
d="M101 810c0 27.333 3.16699 53.4971 9.5 78.4971s15 47 26 66s23.833 34 38.5 45s30.334 16.5 47.001 16.5c28.667 0 55.5 -3.16699 80.5 -9.5s46.667 -15.166 65 -26.499s32.833 -24.5 43.5 -39.5s16 -30.833 16 -47.5c0 -27.333 -3.16699 -53.166 -9.5 -77.499
s-15 -46 -26 -65s-24 -34 -39 -45s-30.833 -16.5 -47.5 -16.5c-28.667 0 -55.334 3.16699 -80.001 9.5s-46.167 15 -64.5 26s-32.833 23.833 -43.5 38.5s-16 30.334 -16 47.001zM100 97.9971c0 28 3.3291 54.5029 9.99609 79.5029s15.5 47 26.5 66s23.833 34 38.5 45
s30.334 16.5 47.001 16.5c15.333 0 31.333 -1.16699 48 -3.5s33 -6 49 -11s31.167 -11.5 45.5 -19.5s26.833 -18 37.5 -30c6.66699 -7.33301 13.334 -16.166 20.001 -26.499s12.5 -23 17.5 -38s9 -32.833 12 -53.5s4.5 -45 4.5 -73c0 -40 -3 -78.833 -9 -116.5
s-18.167 -75.834 -36.5 -114.501s-44.333 -78.834 -78 -120.501s-78.167 -86.5 -133.5 -134.5l-82 96c34 28.667 62.667 55.5 86 80.5s42 48.667 56 71s24 43 30 62s9 36.833 9 53.5c0 16 -6.16699 28.167 -18.5 36.5s-28.166 15.166 -47.499 20.499
c-39.333 10 -71.166 25.167 -95.499 45.5s-36.5 43.166 -36.5 68.499z" />
    <glyph glyph-name="less" unicode="&#x3c;" horiz-adv-x="1168" 
d="M140 505v196l838 374h30v-209l-579 -255v-16l579 -254v-210h-30z" />
    <glyph glyph-name="equal" unicode="=" horiz-adv-x="1162" 
d="M160 494h842v-217h-842v217zM160 957h842v-217h-842v217z" />
    <glyph glyph-name="greater" unicode="&#x3e;" horiz-adv-x="1168" 
d="M190 131h-30v210l579 254v16l-579 255v209h30l838 -374v-196z" />
    <glyph glyph-name="question" unicode="?" horiz-adv-x="1039" 
d="M566 710c-26.667 -24 -44.8291 -45.5 -54.4961 -64.5s-14.5 -39.167 -14.5 -60.5c0 -24 6.16699 -41.5 18.5 -52.5s28.5 -16.5 48.5 -16.5c15.333 0 30.666 1.5 45.999 4.5s29.666 6.5 42.999 10.5c15.333 4.66699 30.333 10 45 16v-121
c-18 -9.33301 -38.667 -17.666 -62 -24.999c-20 -6.66699 -44.333 -12.5 -73 -17.5s-61 -7.5 -97 -7.5c-38.667 0 -73.834 4 -105.501 12s-58.834 20.333 -81.501 37s-40.334 37.334 -53.001 62.001s-19 54 -19 88c0 27.333 3.83301 53.166 11.5 77.499
s19.5 48.666 35.5 72.999s36.333 49.833 61 76.5s54 55.667 88 87l182 168c24 22.667 44 43 60 61s28.833 35.5 38.5 52.5s16.334 34.167 20.001 51.5s5.5 36 5.5 56c0 19.333 -3.83301 37.666 -11.5 54.999s-19.167 32.666 -34.5 45.999s-34.833 23.833 -58.5 31.5
s-51.834 11.5 -84.501 11.5c-30 0 -55.833 -1.66699 -77.5 -5s-40.167 -7 -55.5 -11c-17.333 -4.66699 -32.333 -10 -45 -16l-70 -225l-152 17v297c36 15.333 76.333 29 121 41c38 10.667 83.333 20.334 136 29.001s111 13 175 13c68.667 0 130.667 -6.16699 186 -18.5
s102.333 -30.333 141 -54s68.334 -52.667 89.001 -87s31 -73.166 31 -116.499c0 -41.333 -4.66699 -78.333 -14 -111s-24.666 -65 -45.999 -97s-49.333 -65.5 -84 -100.5s-77.334 -75.5 -128.001 -121.5zM289.005 99c0 27.333 3.16699 53.498 9.5 78.498s15 47 26 66
s23.833 34 38.5 45s30.334 16.5 47.001 16.5c28.667 0 55.5 -3.33301 80.5 -10s46.667 -15.5 65 -26.5s32.833 -24 43.5 -39s16 -30.833 16 -47.5c0 -27.333 -3.16699 -53.166 -9.5 -77.499s-15 -46 -26 -65s-24 -34 -39 -45s-30.833 -16.5 -47.5 -16.5
c-28.667 0 -55.334 3.16699 -80.001 9.5s-46.167 15 -64.5 26s-32.833 23.833 -43.5 38.5s-16 30.334 -16 47.001z" />
    <glyph glyph-name="at" unicode="@" horiz-adv-x="2030" 
d="M868 490c-13.333 -88 -17.832 -155.666 -13.499 -202.999s24.5 -71 60.5 -71c18.667 0 39.167 9.5 61.5 28.5s44.833 42.833 67.5 71.5s44.5 59.667 65.5 93s39.5 64.666 55.5 93.999l60 443c-18 4 -36.833 7.16699 -56.5 9.5s-38.167 3.5 -55.5 3.5
c-24 0 -46.833 -2 -68.5 -6s-39.834 -8.66699 -54.501 -14c-18.667 -32.667 -38.5 -80.667 -59.5 -144s-38.5 -142 -52.5 -236zM1506 -164.999c-76.667 -43.333 -165.337 -78.333 -266.004 -105s-204 -40 -310 -40c-172 0 -318.667 22.333 -440 67
s-215.166 114.667 -281.499 210s-99.166 213.666 -98.499 354.999c0 186 43.667 359.833 131 521.5s216.333 290.667 387 387s361.667 144.5 573 144.5c233.333 0 416.5 -51 549.5 -153s199.5 -243.333 199.5 -424c0 -144 -27.667 -267.667 -83 -371
s-125.5 -181.5 -210.5 -234.5s-172.5 -83.167 -262.5 -90.5l-196 -14l-81 78l23 170c-54 -90.667 -107.667 -154.667 -161 -192s-115 -56 -185 -56c-89.333 0 -152.666 27.333 -189.999 82s-48.333 143 -33 265l12 93c22.667 163.333 82.167 293.333 178.5 390
s216.5 145 360.5 145c60.667 0 128.167 -7.83301 202.5 -23.5s139.833 -33.834 196.5 -54.501l-108 -776c85.333 9.33301 147.833 61 187.5 155s59.5 222.667 59.5 386c0 160 -43 280.833 -129 362.5s-212 122.5 -378 122.5c-148.667 0 -281.667 -40 -399 -120
s-205.666 -187.167 -264.999 -321.5s-89 -279.166 -89 -434.499c0 -175.333 53 -307.333 159 -396s259.333 -133 460 -133c87.333 0 175.833 11.333 265.5 34s163.5 48.334 221.5 77.001v-106z" />
    <glyph glyph-name="A" unicode="A" 
d="M-26 118l100 28l433 1207h263l423 -1207l99 -28l-20 -118h-494l-20 118l132 28l-82 240h-453l-84 -240l132 -28l-20 -118h-389zM406 535h352l-166 488h-16z" />
    <glyph glyph-name="B" unicode="B" horiz-adv-x="1234" 
d="M213 1201l-143.001 34.001l20 118h569c141.333 0 251.833 -26.833 331.5 -80.5s119.5 -130.834 119.5 -231.501c0 -68.667 -21.333 -131.167 -64 -187.5s-100 -100.833 -172 -133.5l2 -16c90 -15.333 161.167 -49.333 213.5 -102s78.5 -119 78.5 -199
c0 -120.667 -43.167 -218 -129.5 -292s-200.166 -111 -341.499 -111h-607l-20 118l143 34v1049zM512.999 628.001l-0.000976562 -478.998h87c40 0 80.167 1.66699 120.5 5s79.5 10 117.5 20c8.66699 27.333 15.834 60.666 21.501 99.999s8.5 78.666 8.5 117.999
c0 75.333 -22.667 133.5 -68 174.5s-106.333 61.5 -183 61.5h-104zM512.998 1204l-0.000976562 -427.001h81c29.333 0 59.833 2.33301 91.5 7s61.834 11.334 90.501 20.001c9.33301 24.667 17.333 55.167 24 91.5s10 72.166 10 107.499
c0 72.667 -18.167 124.334 -54.5 155.001s-95.5 46 -177.5 46h-65z" />
    <glyph glyph-name="C" unicode="C" horiz-adv-x="1186" 
d="M70 604c0 252.667 55.6602 444.335 166.993 575.002s277.333 196 498 196c60.667 0 122.834 -5 186.501 -15s122.5 -24.667 176.5 -44l21 -290l-155 -22l-85 199c-21.333 7.33301 -47.5 13 -78.5 17s-61.833 6 -92.5 6c-50 0 -100.167 -7.33301 -150.5 -22
s-93.166 -33.334 -128.499 -56.001c-16.667 -61.333 -30.667 -132.666 -42 -213.999s-17 -165 -17 -251v-133c0 -138.667 32.833 -243.834 98.5 -315.501s163.167 -107.5 292.5 -107.5c56.667 0 116.834 9.33301 180.501 28s123.834 44 180.501 76v-126
c-59.333 -38.667 -128.166 -69.5 -206.499 -92.5s-158.166 -34.5 -239.499 -34.5c-199.333 0 -350.166 45.667 -452.499 137s-153.5 224.666 -153.5 399.999v89z" />
    <glyph glyph-name="D" unicode="D" horiz-adv-x="1428" 
d="M213 1201l-142.999 34l20 118h618c211.333 0 370.833 -50.333 478.5 -151s161.5 -246.334 161.5 -437.001v-78c0 -211.333 -56.833 -378.666 -170.5 -501.999s-266.834 -185 -459.501 -185h-628l-20 118l143 34v1049zM513.001 1204v-1055h161
c39.333 0 80.333 2.66699 123 8s81 12.333 115 21c34.667 48 66 112.667 94 194s42 164.666 42 249.999v94c0 165.333 -33.333 288 -100 368s-169 120 -307 120h-128z" />
    <glyph glyph-name="E" unicode="E" horiz-adv-x="1203" 
d="M513 633v-484h401l83 193l134 -23l-24 -319h-1017l-20 118l143 34v1049l-143 34l20 118h987l24 -320l-133 -22l-83 193h-372v-422h287l34 112l119 -20v-334l-119 -20l-34 113h-287z" />
    <glyph glyph-name="F" unicode="F" horiz-adv-x="1083" 
d="M511 633v-481l202 -34l-20 -118h-605l-20 118l143 34v1049l-143 34l20 118h927l24 -320l-123 -22l-83 193h-322v-422h250l34 112l118 -20v-334l-118 -20l-34 113h-250z" />
    <glyph glyph-name="G" unicode="G" horiz-adv-x="1330" 
d="M1154 105c-64.667 -39.333 -136.666 -70.168 -215.999 -92.501s-167 -33.833 -263 -34.5c-193.333 0 -341.833 44.667 -445.5 134s-155.5 220.333 -155.5 393v89c0 253.333 58.167 446.833 174.5 580.5s282.166 200.5 497.499 200.5c68.667 0 137 -4.83301 205 -14.5
s130.667 -23.834 188 -42.501l21 -290l-155 -22l-84 197c-30.667 8 -63.167 13.833 -97.5 17.5s-67.833 5.5 -100.5 5.5c-50.667 0 -100.834 -7 -150.501 -21s-96.167 -33 -139.5 -57c-17.333 -63.333 -31.5 -135.166 -42.5 -215.499s-16.5 -163.5 -16.5 -249.5v-133
c0 -135.333 33.833 -239.666 101.5 -312.999s154.834 -110 261.501 -110c18.667 0 38 1 58 3s39.667 5 59 9v355l-143 34l20 118h545l20 -118l-142 -34v-389z" />
    <glyph glyph-name="H" unicode="H" horiz-adv-x="1541" 
d="M209 1201l-143 34l20 118h545l20 -118l-142 -34v-413h524v413l-142 34l20 118h546l20 -118l-144 -34v-1049l144 -34l-20 -118h-546l-20 118l142 34v487h-524v-487l142 -34l-20 -118h-545l-20 118l143 34v1049z" />
    <glyph glyph-name="I" unicode="I" horiz-adv-x="717" 
d="M211 1201l-143 34l20 118h545l20 -118l-142 -34v-1049l142 -34l-20 -118h-545l-20 118l143 34v1049z" />
    <glyph glyph-name="J" unicode="J" horiz-adv-x="897" 
d="M739 336c0 -116.667 -33.832 -205.498 -101.499 -266.498s-171.167 -91.5 -310.5 -91.5c-48.667 0 -98.667 5.16699 -150 15.5s-96 22.833 -134 37.5l-21 280l153 22l84 -196c24 -7.33301 49.667 -11 77 -11c16 0 31.667 1.33301 47 4s27 5.66699 35 9
c5.33301 19.333 10.166 50.166 14.499 92.499s6.5 88.166 6.5 137.499v832l-193 34l20 118h595l20 -118l-142 -34v-865z" />
    <glyph glyph-name="K" unicode="K" horiz-adv-x="1394" 
d="M64 118l143 34v1049l-143 34l20 118h545l20 -118l-142 -34v-467l14 -6l503 486l-109 20l20 119h448l20 -118l-141 -36l-397 -378l442 -674l117 -29l-20 -118h-344l-404 622l-149 -142v-328l142 -34l-20 -118h-545z" />
    <glyph glyph-name="L" unicode="L" horiz-adv-x="1066" 
d="M211 1201l-143 34l20 118h545l20 -118l-142 -34v-1052h266l83 193l154 -22l-25 -320h-901l-20 118l143 34v1049z" />
    <glyph glyph-name="M" unicode="M" horiz-adv-x="2011" 
d="M207 1201l-143 34l20 118h544l371 -981h16l357 981h555l20 -118l-142 -34v-1049l142 -34l-20 -118h-545l-20 118l143 34v983h-16l-424 -1135h-205l-437 1135h-16v-983l142 -34l-20 -118h-445l-20 118l143 34v1049z" />
    <glyph glyph-name="N" unicode="N" horiz-adv-x="1579" 
d="M211 1201l-143 34l20 118h520l592 -1101h16v949l-144 34l20 118h447l20 -118l-142 -34v-1201h-399l-591 1100h-16v-948l162 -34l-20 -118h-465l-20 118l143 34v1049z" />
    <glyph glyph-name="O" unicode="O" horiz-adv-x="1407" 
d="M695 -22c-202 0 -354.001 45.667 -456.001 137s-153 228 -153 410v79c0 262.667 55.333 456.834 166 582.501s271.334 188.5 482.001 188.5c201.333 0 353.833 -45.667 457.5 -137s155.5 -228.333 155.5 -411v-78c0 -256.667 -54.333 -449.334 -163 -578.001
s-271.667 -193 -489 -193zM1047 783c0 144.667 -29.499 254.666 -88.499 329.999s-146.167 113 -261.5 113c-50 0 -97.5 -6.66699 -142.5 -20s-81.5 -29.333 -109.5 -48c-12 -42.667 -24.833 -107 -38.5 -193s-20.5 -173.333 -20.5 -262v-133
c0 -139.333 32.5 -248 97.5 -326s149.5 -117 253.5 -117c53.333 0 103.166 7.33301 149.499 22s80.5 30.334 102.5 47.001c14 50 27.167 117.833 39.5 203.5s18.5 169.167 18.5 250.5v133z" />
    <glyph glyph-name="P" unicode="P" horiz-adv-x="1166" 
d="M213 1201l-143 34l20 118h575c164 0 287.167 -30 369.5 -90s123.5 -148.667 123.5 -266c0 -126 -44.167 -225.167 -132.5 -297.5s-201.5 -108.5 -339.5 -108.5h-173v-439l212 -34l-20 -118h-615l-20 118l143 34v1049zM513 1204l-0.00195312 -464h110
c38.667 0 76.834 2.83301 114.501 8.5s67.167 12.167 88.5 19.5c8.66699 26 15.5 57.333 20.5 94s7.5 72 7.5 106c0 80 -22.167 139.333 -66.5 178s-109.166 58 -194.499 58h-80z" />
    <glyph glyph-name="Q" unicode="Q" horiz-adv-x="1438" 
d="M683 -22c-201.333 0 -353.165 45.8311 -455.498 137.498s-153.5 228.167 -153.5 409.5v79c0 257.333 54.167 450.166 162.5 578.499s270.166 192.5 485.499 192.5c201.333 0 353.833 -45.667 457.5 -137s155.5 -228.333 155.5 -411v-78c0 -154.667 -19.5 -286 -58.5 -394
s-98.833 -193.333 -179.5 -256c31.333 -59.333 59.833 -98.166 85.5 -116.499s55.167 -27.5 88.5 -27.5c16 0 35.833 2.5 59.5 7.5s43.5 10.833 59.5 17.5v-120c-26 -15.333 -59.833 -28.166 -101.5 -38.499s-83.5 -15.5 -125.5 -15.5
c-70.667 0 -130.334 14.333 -179.001 43s-89 75.334 -121 140.001l-3 6c-55.333 -11.333 -114.333 -17 -177 -17zM1035 782.998c0 148 -29.834 258.832 -89.501 332.499s-146.5 110.5 -260.5 110.5c-48 0 -94.667 -6.5 -140 -19.5s-82.666 -29.167 -111.999 -48.5
c-14.667 -54 -28.167 -123.833 -40.5 -209.5s-18.5 -167.5 -18.5 -245.5v-133c0 -16.667 0.333008 -32.667 1 -48s2 -30 4 -44c18.667 36.667 48 65.334 88 86.001s84.333 31 133 31c85.333 0 159.5 -21.5 222.5 -64.5s118.167 -112.167 165.5 -207.5l12 -25
c8 42.667 15.833 95.5 23.5 158.5s11.5 127.5 11.5 193.5v133zM433 352.997c0 -17.333 1.66699 -33.332 5 -47.999s9.66602 -29 18.999 -43c33.333 -46 73.5 -80 120.5 -102s96.167 -33 147.5 -33c12 0 23.667 0.333008 35 1s22.333 1.66699 33 3l-44 92
c-36 74 -71.667 129.667 -107 167s-72.666 56 -111.999 56c-32 0 -56.167 -9.33301 -72.5 -28s-24.5 -40.334 -24.5 -65.001z" />
    <glyph glyph-name="R" unicode="R" horiz-adv-x="1281" 
d="M213 1201l-143 34.001l20 118h559c150 0 266 -30.833 348 -92.5s123 -152.834 123 -273.501c0 -80 -19 -148.5 -57 -205.5s-93.667 -102.833 -167 -137.5l-6 -19l252 -472l123 -35l-20 -118h-309l-310 591h-113v-439l142 -34l-20 -118h-545l-20 118l143 34v1049z
M513 1204l-0.00195312 -464.001h73c46.667 0 87.334 2.33301 122.001 7s62 11.334 82 20.001c8 27.333 14.333 58.833 19 94.5s7 71.5 7 107.5c0 90.667 -20.667 152.5 -62 185.5s-104.666 49.5 -189.999 49.5h-51z" />
    <glyph glyph-name="S" unicode="S" horiz-adv-x="1130" 
d="M664 813c154 -86.667 260.167 -162.833 318.5 -228.5s87.5 -145.5 87.5 -239.5c0 -116.667 -48.667 -207 -146 -271s-230.333 -96 -399 -96c-77.333 0 -151.666 5.66699 -222.999 17s-132 26.666 -182 45.999l-21 279l167 25l84 -197
c27.333 -6.66699 57.5 -11.834 90.5 -15.501s66.167 -5.5 99.5 -5.5c35.333 0 70.666 2.66699 105.999 8s66.666 12 93.999 20c8 16 15 36 21 60s9 47.667 9 71c0 53.333 -21 100 -63 140s-118.667 93.333 -230 160c-170 98 -278.667 177 -326 237s-71.333 130.333 -72 211
c0 108 47.167 191.833 141.5 251.5s224.5 89.5 390.5 89.5c67.333 0 133.5 -4.66699 198.5 -14s122.833 -22 173.5 -38l21 -290l-155 -22l-83 197c-26 6 -53.833 10.5 -83.5 13.5s-58.834 4.5 -87.501 4.5c-33.333 0 -66.666 -2.33301 -99.999 -7
s-65.666 -11.667 -96.999 -21c-5.33301 -17.333 -9.83301 -36.666 -13.5 -57.999s-5.5 -41.666 -5.5 -60.999c0 -42 16.5 -78.667 49.5 -110s111.5 -83.333 235.5 -156z" />
    <glyph glyph-name="T" unicode="T" horiz-adv-x="1207" 
d="M454 1204h-235l-62 -170l-149 9l15 310h1162l14 -310l-148 -9l-63 170h-234v-1052l143 -34l-20 -118h-546l-20 118l143 34v1052z" />
    <glyph glyph-name="U" unicode="U" horiz-adv-x="1400" 
d="M444 546c0 -138.667 26.3301 -243.168 78.9971 -313.501s127.334 -105.5 224.001 -105.5c48.667 0 94.334 5.5 137.001 16.5s76.334 24.167 101.001 39.5c22 41.333 40.5 91.833 55.5 151.5s22.5 121.834 22.5 186.501v680l-143 34l20 118h436l20 -118l-142 -34v-657
c0 -190.667 -45.333 -332.667 -136 -426s-230.667 -140 -420 -140c-191.333 0 -331.5 43 -420.5 129s-133.5 214 -133.5 384v710l-144 34l20 118h546l20 -118l-142 -34v-655z" />
    <glyph glyph-name="V" unicode="V" horiz-adv-x="1258" 
d="M520 1234l-143 -27l305 -905h16l304 904l-143 28l20 119h403l20 -119l-95 -30l-423 -1204h-291l-424 1204l-95 30l20 119h506z" />
    <glyph glyph-name="W" unicode="W" horiz-adv-x="2082" 
d="M507 1234l-144 -28l284 -866h16l318 1011v2h271l309 -1013h16l254 866l-148 28l20 119h403l20 -119l-88 -28l-371 -1206h-291l-298 956h-16l-302 -956h-292l-406 1206l-92 28l20 119h497z" />
    <glyph glyph-name="X" unicode="X" horiz-adv-x="1351" 
d="M748 118l126 27l-248 376l-251 -376l122 -27l-20 -118h-421l-20 118l123 33l357 537l-340 514l-122 32l20 119h541l20 -119l-126 -26l227 -345l231 345l-124 26l20 119h425l20 -119l-124 -32l-338 -506l360 -545l123 -33l-20 -118h-541z" />
    <glyph glyph-name="Y" unicode="Y" horiz-adv-x="1172" 
d="M452 586l-389 617l-117 31l20 119h520l20 -119l-142 -27l277 -444l264 444l-135 27l20 119h422l20 -119l-113 -31l-367 -616v-435l142 -34l-20 -118h-545l-20 118l143 34v434z" />
    <glyph glyph-name="Z" unicode="Z" horiz-adv-x="1165" 
d="M1095 1353v-144l-696 -1046l5 -14h482l82 193l153 -22l-24 -320h-1047v145l695 1045l-5 14h-441l-82 -193l-154 22l25 320h1007z" />
    <glyph glyph-name="bracketleft" unicode="[" horiz-adv-x="678" 
d="M150 1677h468v-116h-191v-1902h191v-116h-468v2134z" />
    <glyph glyph-name="backslash" unicode="\" horiz-adv-x="883" 
d="M813 -275v-20h-215l-568 1815v20h215z" />
    <glyph glyph-name="bracketright" unicode="]" horiz-adv-x="678" 
d="M528 -457h-468v116h191v1902h-191v116h468v-2134z" />
    <glyph glyph-name="asciicircum" unicode="^" horiz-adv-x="1104" 
d="M481 1562h122l381 -483v-30h-199l-235 294h-16l-234 -294h-200v30z" />
    <glyph glyph-name="underscore" unicode="_" horiz-adv-x="1176" 
d="M70 -225h1036v-174h-1036v174z" />
    <glyph glyph-name="grave" unicode="`" horiz-adv-x="888" 
d="M688 1275l-168 -10l-320 329v66l285 10l203 -363v-32z" />
    <glyph glyph-name="a" unicode="a" horiz-adv-x="1188" 
d="M1001 152l142.999 -33.999l-20 -118l-335 -22l-57 158c-41.333 -47.333 -93.166 -85.5 -155.499 -114.5s-129.166 -43.5 -200.499 -43.5c-98.667 0 -174.334 22.167 -227.001 66.5s-79 108.5 -79 192.5c0 126.667 53.833 221.667 161.5 285s267.5 95 479.5 95v93
c0 88 -15.167 152.833 -45.5 194.5s-79.5 62.5 -147.5 62.5c-28 0 -54.167 -1.5 -78.5 -4.5s-45.5 -6.5 -63.5 -10.5l-60 -212l-168 10v303c56.667 16 120.5 29 191.5 39s139.833 15 206.5 15c154.667 0 269.167 -30.833 343.5 -92.5s111.5 -154.834 111.5 -279.501v-583z
M710.999 477.001c-66.667 0 -128.833 -5.33301 -186.5 -16s-102.5 -24.667 -134.5 -42c-8 -16.667 -15 -37.5 -21 -62.5s-9 -52.167 -9 -81.5c0 -50.667 10.333 -89.5 31 -116.5s50.334 -40.5 89.001 -40.5c42 0 84.167 12.833 126.5 38.5s77.166 55.167 104.499 88.5v232z
" />
    <glyph glyph-name="b" unicode="b" horiz-adv-x="1206" 
d="M437 967l14.001 -6.00098c42.667 47.333 90.667 83.5 144 108.5s110 37.5 170 37.5c130 0 224.667 -36.167 284 -108.5s89 -183.166 89 -332.499v-94c0 -182 -47.167 -326.5 -141.5 -433.5s-221.5 -160.5 -381.5 -160.5c-70.667 0 -149.334 8.33301 -236.001 25
s-164 36.667 -232 60v1325l-143 34l20 118l413 22v-595zM848.001 641.999c0 112 -13.332 194.168 -39.999 246.501s-71.667 78.5 -135 78.5c-39.333 0 -79.833 -13.833 -121.5 -41.5s-79.834 -63.5 -114.501 -107.5v-673c23.333 -6.66699 53.333 -12.834 90 -18.501
s72.667 -8.5 108 -8.5c28 0 57.333 4 88 12s58 18 82 30c12.667 48.667 23 103.5 31 164.5s12 127.167 12 198.5v119z" />
    <glyph glyph-name="c" unicode="c" horiz-adv-x="992" 
d="M62 492c0 201.333 47.168 354.167 141.501 458.5s224.5 156.5 390.5 156.5c54 0 110 -5.5 168 -16.5s111.667 -26.5 161 -46.5l19 -254l-170 -23l-73 190c-22 4 -43.5 6.66699 -64.5 8s-40.833 2 -59.5 2c-31.333 0 -62.5 -3.83301 -93.5 -11.5
s-57.5 -17.167 -79.5 -28.5c-13.333 -44.667 -25 -100.667 -35 -168s-15 -136.333 -15 -207v-109c0 -106.667 24.5 -187.5 73.5 -242.5s120.167 -82.5 213.5 -82.5c42.667 0 92 7.66699 148 23s105 32 147 50v-116c-50.667 -29.333 -109.834 -52.833 -177.501 -70.5
s-136.5 -26.5 -206.5 -26.5c-153.333 0 -273 36.333 -359 109s-129 176.667 -129 312v93z" />
    <glyph glyph-name="d" unicode="d" horiz-adv-x="1242" 
d="M1067 152l142.998 -34.001l-20 -118l-335 -22l-57 158c-37.333 -47.333 -86.166 -85.5 -146.499 -114.5s-123.833 -43.5 -190.5 -43.5c-129.333 0 -227.5 36.333 -294.5 109s-100.5 181.334 -100.5 326.001v93c0 188 47 335.167 141 441.5s226.333 159.5 397 159.5
c25.333 0 53.333 -1.83301 84 -5.5s60.334 -8.16699 89.001 -13.5v300l-143 34l20 118l413 22v-1410zM355.998 422.999c0 -100 15.833 -175.833 47.5 -227.5s78.167 -77.5 139.5 -77.5c39.333 0 79.833 11.833 121.5 35.5s79.167 54.167 112.5 91.5v697
c-24 6 -53.5 11.667 -88.5 17s-69.833 8 -104.5 8c-38 0 -73.5 -4.5 -106.5 -13.5s-60.167 -20.167 -81.5 -33.5c-11.333 -46 -20.833 -100.833 -28.5 -164.5s-11.5 -131.167 -11.5 -202.5v-130z" />
    <glyph glyph-name="e" unicode="e" horiz-adv-x="1078" 
d="M354 513v-66c0 -106.667 25.833 -188.167 77.5 -244.5s129.834 -84.5 234.501 -84.5c45.333 0 98 6.66699 158 20s111.667 28.333 155 45v-116c-48.667 -24.667 -111.334 -45.667 -188.001 -63s-154.667 -26 -234 -26c-158 0 -279.667 37.333 -365 112
s-128 182.667 -128 324v83c0 192 48 341.667 144 449s229.333 161 400 161c152 0 260.667 -36.167 326 -108.5s98 -190.833 98 -355.5v-130h-678zM402 928c-10.667 -38.667 -20.167 -82.666 -28.5 -131.999s-13.833 -97 -16.5 -143h385c0 116.667 -13.333 198.167 -40 244.5
s-72 69.5 -136 69.5c-28 0 -56.167 -3.33301 -84.5 -10s-54.833 -16.334 -79.5 -29.001z" />
    <glyph glyph-name="f" unicode="f" horiz-adv-x="757" 
d="M211 1193c0 122.667 32.668 214.831 98.001 276.498s160.666 92.5 285.999 92.5c34 0 69.5 -3.5 106.5 -10.5s68.833 -15.833 95.5 -26.5l-43 -151c-29.333 10.667 -65.166 20.167 -107.499 28.5s-80.833 12.5 -115.5 12.5
c-8.66699 -23.333 -15.834 -52.666 -21.501 -87.999s-8.5 -74.666 -8.5 -117.999v-124h194l20 -118l-214 -34v-781l193 -34l-20 -118h-586l-20 118l143 34v781l-153 34l20 118h133v108z" />
    <glyph glyph-name="g" unicode="g" horiz-adv-x="1092" 
d="M872 958l-4.00195 -9.99805c32.667 -18.667 60.834 -45.667 84.501 -81s35.5 -74.333 35.5 -117v-15c0 -112.667 -42.5 -202 -127.5 -268s-195.833 -99 -332.5 -99c-24 0 -47 0.833008 -69 2.5s-43 4.16699 -63 7.5c-29.333 -25.333 -53 -49.333 -71 -72s-27 -41 -27 -55
c0 -16 7.83301 -27.167 23.5 -33.5s38.167 -9.5 67.5 -9.5h207c162 0 284.5 -25.833 367.5 -77.5s124.5 -128.834 124.5 -231.501c0 -114.667 -48.667 -202.667 -146 -264s-236 -92 -416 -92c-168.667 0 -292.167 15.833 -370.5 47.5s-117.5 81.834 -117.5 150.501
c0 41.333 17.167 83.666 51.5 126.999s82.5 85.333 144.5 126c-46.667 12 -82.667 31.167 -108 57.5s-38 59.166 -38 98.499c0 44 17.833 89.5 53.5 136.5s80.5 89.167 134.5 126.5c-64.667 29.333 -112.167 67 -142.5 113s-45.5 96.333 -45.5 151v24
c0 130 41.333 230.167 124 300.5s193.334 105.5 332.001 105.5c24 0 49 -1.83301 75 -5.5s51.333 -9.16699 76 -16.5h330l18 -127h-171zM372.998 -21.998c-30.667 -30 -55.833 -61.5 -75.5 -94.5s-29.5 -62.5 -29.5 -88.5c0 -44.667 21.833 -74.5 65.5 -89.5
s127.834 -22.5 252.501 -22.5c47.333 0 93.666 3.5 138.999 10.5s87.333 17.167 126 30.5c8 14 14.5 31.5 19.5 52.5s7.5 41.833 7.5 62.5c0 52 -22.167 88.167 -66.5 108.5s-116.5 30.5 -216.5 30.5h-220h-2zM697.999 764.002c0 65.333 -16.166 115.499 -48.499 150.499
s-72.833 52.5 -121.5 52.5c-19.333 0 -38.833 -1.66699 -58.5 -5s-36.834 -8.33301 -51.501 -15c-11.333 -25.333 -20.833 -56 -28.5 -92s-11.5 -73 -11.5 -111v-38c0 -59.333 17.167 -107.166 51.5 -143.499s73.833 -54.5 118.5 -54.5c23.333 0 44.5 1.83301 63.5 5.5
s34.5 8.5 46.5 14.5c11.333 22.667 20.833 51.5 28.5 86.5s11.5 72.167 11.5 111.5v38z" />
    <glyph glyph-name="h" unicode="h" horiz-adv-x="1378" 
d="M56 118l142.996 33.999v1236l-143 34l20 118l413 22v-595l14 -6c50.667 48 104.834 84.333 162.501 109s116.834 37 177.501 37c112.667 0 198.834 -28.833 258.501 -86.5s89.5 -142.5 89.5 -254.5v-614l143 -34l-20 -118h-536l-20 118l143 34v599
c0 72.667 -11.5 126.834 -34.5 162.501s-60.833 53.5 -113.5 53.5c-40 0 -84.167 -14.5 -132.5 -43.5s-92.166 -64.167 -131.499 -105.5v-666l143 -34l-20 -118h-536z" />
    <glyph glyph-name="i" unicode="i" horiz-adv-x="696" 
d="M501 152l143 -34l-20 -118h-536l-20 118l143 34v781l-143 34l20 118l413 22v-955zM186 1395c0 47.333 12.499 88.833 37.499 124.5s54.167 53.5 87.5 53.5c48.667 0 90.334 -12.333 125.001 -37s52 -54.667 52 -90c0 -47.333 -12.667 -88.5 -38 -123.5
s-54.333 -52.5 -87 -52.5c-48 0 -89.5 12.333 -124.5 37s-52.5 54 -52.5 88z" />
    <glyph glyph-name="j" unicode="j" horiz-adv-x="656" 
d="M510 -47c0 -142 -28.5 -245.833 -85.5 -311.5s-149.167 -98.5 -276.5 -98.5c-46.667 0 -95 3.66699 -145 11s-89.667 16 -119 26l36 151c38 -10.667 80.333 -20 127 -28s91 -12.333 133 -13c11.333 22 20.833 52.667 28.5 92s11.5 83.333 11.5 132v1019l-173 34l20 118
l443 22v-1154zM195 1395c0 47.333 12.499 88.833 37.499 124.5s54.167 53.5 87.5 53.5c48.667 0 90.334 -12.333 125.001 -37s52 -54.667 52 -90c0 -47.333 -12.667 -88.5 -38 -123.5s-54.333 -52.5 -87 -52.5c-48 0 -89.5 12.333 -124.5 37s-52.5 54 -52.5 88z" />
    <glyph glyph-name="k" unicode="k" horiz-adv-x="1274" 
d="M56 118l143 34v1236l-143 34l20 118l413 22v-943l14 -6l388 337l-106 17l20 118h415l20 -118l-112 -27l-325 -264l329 -524l126 -34l-20 -118h-318l-321 510l-110 -89v-269l143 -34l-20 -118h-536z" />
    <glyph glyph-name="l" unicode="l" horiz-adv-x="664" 
d="M199 1388l-143 34l20 118l413 22v-1410l143 -34l-20 -118h-536l-20 118l143 34v1236z" />
    <glyph glyph-name="m" unicode="m" horiz-adv-x="2094" 
d="M68 118l143.001 34v781l-143 34l20 118l335 22l58 -158c62.667 58 124 98.833 184 122.5s123.333 35.5 190 35.5c74 0 136 -11.833 186 -35.5s93.667 -64.5 131 -122.5c57.333 53.333 119 93 185 119s132.667 39 200 39c113.333 0 199.666 -28.833 258.999 -86.5
s89 -142.5 89 -254.5v-614l143 -34l-20 -118h-536l-20 118l143 34v599c0 74 -11.667 128.5 -35 163.5s-61 52.5 -113 52.5c-38.667 0 -82.167 -14.167 -130.5 -42.5s-92.833 -63.833 -133.5 -106.5v-666l143 -34l-20 -118h-536l-20 118l143 34v599c0 76 -12 131 -36 165
s-61.333 51 -112 51c-38 0 -80 -13.167 -126 -39.5s-92 -62.833 -138 -109.5v-666l143 -34l-20 -118h-536z" />
    <glyph glyph-name="n" unicode="n" horiz-adv-x="1392" 
d="M68 118l143.001 33.999v781l-143 34l20 118l335 22l58 -158c62.667 58 124 98.833 184 122.5s123.333 35.5 190 35.5c113.333 0 199.666 -29 258.999 -87s89 -142.667 89 -254v-614l143 -34l-20 -118h-536l-20 118l143 34v599c0 76.667 -12.167 131.834 -36.5 165.501
s-61.5 50.5 -111.5 50.5c-35.333 0 -75.833 -12.333 -121.5 -37s-93.167 -62 -142.5 -112v-666l143 -34l-20 -118h-536z" />
    <glyph glyph-name="o" unicode="o" horiz-adv-x="1168" 
d="M566 -22c-160.667 0 -284.833 38.668 -372.5 116.001s-131.5 185.666 -131.5 324.999v93c0 186 48.333 331.667 145 437s225 158 385 158c158.667 0 283.667 -38.333 375 -115s137 -188.667 137 -336v-94c0 -178 -47.667 -319.833 -143 -425.5s-227 -158.5 -395 -158.5z
M814.001 622.001c0 112 -23.168 197.501 -69.501 256.501s-105.166 88.5 -176.499 88.5c-32 0 -62.333 -3.66699 -91 -11s-53.667 -17 -75 -29c-15.333 -46.667 -27.5 -101 -36.5 -163s-13.5 -126 -13.5 -192v-119c0 -106.667 23.667 -189.167 71 -247.5
s105.333 -87.5 174 -87.5c33.333 0 64.5 3.66699 93.5 11s53.5 17 73.5 29c14.667 38 26.667 87.167 36 147.5s14 126.166 14 197.499v119z" />
    <glyph glyph-name="p" unicode="p" horiz-adv-x="1244" 
d="M888 622c0 116 -14.332 202.502 -42.999 259.502s-76.334 85.5 -143.001 85.5c-36 0 -75 -13.833 -117 -41.5s-81.333 -63.5 -118 -107.5v-673c32.667 -8.66699 65 -15.334 97 -20.001s60.667 -7 86 -7c36 0 71 3.66699 105 11s62.667 17 86 29
c10.667 36 21.167 86.667 31.5 152s15.5 129.666 15.5 192.999v119zM177.001 933.002l-143 34l20 118l335 22l58 -158c50 52.667 104.5 92.167 163.5 118.5s120.167 39.5 183.5 39.5c128 0 224 -37.5 288 -112.5s96 -187.833 96 -338.5v-94
c0 -179.333 -46.167 -321.5 -138.5 -426.5s-218.833 -157.5 -379.5 -157.5c-34 0 -66.833 2.33301 -98.5 7s-63.167 10.667 -94.5 18v-285l143 -34l-20 -119h-536l-20 119l143 34v1215z" />
    <glyph glyph-name="q" unicode="q" horiz-adv-x="1167" 
d="M765 96l-10.002 4.00098c-38 -35.333 -87 -64.5 -147 -87.5s-122 -34.5 -186 -34.5c-114.667 0 -203 36.5 -265 109.5s-93 180.167 -93 321.5v83c0 185.333 48 334.166 144 446.499s223 168.5 381 168.5c64.667 0 137.834 -5.5 219.501 -16.5
s163.834 -26.833 246.501 -47.5v-1500l-413 22l-20 118l143 34v379zM353.998 453.001c0 -110.667 14.832 -194.167 44.499 -250.5s71.834 -84.5 126.501 -84.5c37.333 0 77.5 11.833 120.5 35.5s82.833 54.167 119.5 91.5v699c-28.667 7.33301 -59.167 13 -91.5 17
s-64.5 6 -96.5 6c-35.333 0 -69 -4.33301 -101 -13s-59.333 -20 -82 -34c-10.667 -40.667 -20 -93.167 -28 -157.5s-12 -127.833 -12 -190.5v-119z" />
    <glyph glyph-name="r" unicode="r" horiz-adv-x="919" 
d="M211 933l-143 33.999l20 118l335 22l58 -158c29.333 54.667 65.333 94.667 108 120s92.334 38 149.001 38c26.667 0 54.667 -3.66699 84 -11s56.333 -17.666 81 -30.999l-25 -303h-192l-27 189c-4.66699 1.33301 -9.33398 2.33301 -14.001 3s-9 1 -13 1
c-20 0 -41.5 -12.167 -64.5 -36.5s-45.167 -57.833 -66.5 -100.5v-666l176 -34l-20 -118h-569l-20 118l143 34v781z" />
    <glyph glyph-name="s" unicode="s" horiz-adv-x="962" 
d="M591 664c123.333 -66.667 208.666 -125.997 255.999 -177.997s71 -118.667 71 -200c0 -98 -40.833 -173.833 -122.5 -227.5s-196.834 -80.5 -345.501 -80.5c-71.333 0 -138.833 6.5 -202.5 19.5s-118.167 29.833 -163.5 50.5l-10 260l169 20l59 -189
c22.667 -6.66699 47.334 -11.834 74.001 -15.501s53.667 -5.5 81 -5.5c30.667 0 59.667 1.83301 87 5.5s53 8.83398 77 15.501c2.66699 10.667 4.5 22.834 5.5 36.501s1.5 26.834 1.5 39.501c0 43.333 -16.5 81 -49.5 113s-100.167 76.667 -201.5 134
c-114.667 62.667 -195.167 118.167 -241.5 166.5s-69.5 111.5 -69.5 189.5c0 89.333 39.5 159.833 118.5 211.5s192.5 77.5 340.5 77.5c52.667 0 109.167 -5.66699 169.5 -17s118.833 -28.333 175.5 -51l9 -261l-169 -20l-61 194
c-21.333 5.33301 -43.5 9.16602 -66.5 11.499s-44.5 3.5 -64.5 3.5c-25.333 0 -51.833 -1.83301 -79.5 -5.5s-52.167 -8.83398 -73.5 -15.501c-3.33301 -10.667 -5.66602 -22.334 -6.99902 -35.001s-2 -25.334 -2 -38.001c0 -31.333 14.333 -60.333 43 -87
s92.667 -67.334 192 -122.001z" />
    <glyph glyph-name="t" unicode="t" horiz-adv-x="772" 
d="M699 1085l20.0039 -119.002l-270 -32v-642c0 -55.333 8.83301 -98.166 26.5 -128.499s52.5 -45.5 104.5 -45.5c19.333 0 41.666 3.83301 66.999 11.5s49.666 16.834 72.999 27.501v-114c-36 -20.667 -77.333 -36.667 -124 -48s-93.334 -17 -140.001 -17
c-106.667 0 -182.834 23.5 -228.501 70.5s-68.5 120.833 -68.5 221.5v664l-151 32l20 119h131l73 293l217 -20v-273h250z" />
    <glyph glyph-name="u" unicode="u" horiz-adv-x="1316" 
d="M441 373c0 -88 12.666 -152.5 37.999 -193.5s65.666 -61.5 120.999 -61.5c36 0 74.5 13.333 115.5 40s80.167 63 117.5 109v666l-173 34l20 118l443 22v-955l143 -34l-20 -118l-335 -22l-58 158c-51.333 -52.667 -107.166 -92.167 -167.499 -118.5
s-125.166 -39.5 -194.499 -39.5c-113.333 0 -198.333 31.667 -255 95s-85 157 -85 281v579l-143 34l20 118l413 22v-734z" />
    <glyph glyph-name="v" unicode="v" horiz-adv-x="1100" 
d="M1124 967l-92 -19l-332 -948h-297l-335 947l-92 20l20 118h450l20 -118l-123 -19l243 -726h16l240 726l-122 19l20 118h364z" />
    <glyph glyph-name="w" unicode="w" horiz-adv-x="1769" 
d="M1793 967l-90 -19l-289 -948h-292l-217 699h-16l-212 -699h-292l-316 948l-93 19l20 118h451l20 -118l-125 -19l219 -691h16l239 828h243l242 -828h16l198 691l-128 19l20 118h366z" />
    <glyph glyph-name="x" unicode="x" horiz-adv-x="1168" 
d="M26 118l100 18l315 407l-308 406l-93 18l20 118h450l20 -118l-99 -14l194 -255l201 255l-95 14l20 118h363l20 -118l-96 -18l-307 -390l322 -423l99 -18l-20 -118h-457l-20 118l98 14l-206 272l-211 -272l97 -14l-20 -118h-367z" />
    <glyph glyph-name="y" unicode="y" horiz-adv-x="1104" 
d="M1128 967l-92 -18.999l-333 -952c-57.333 -166.667 -116 -283.834 -176 -351.501s-136 -101.5 -228 -101.5c-47.333 0 -95 6 -143 18s-92 28.333 -132 49l41 171c50 -22 103.833 -41 161.5 -57s105.5 -24 143.5 -24c14.667 8.66699 31.167 24.667 49.5 48
s33.833 50 46.5 80l-394 1120l-92 19l20 118h450l20 -118l-123 -19l243 -726h16l240 726l-122 19l20 118h364z" />
    <glyph glyph-name="z" unicode="z" horiz-adv-x="1039" 
d="M790 130l52 190l144 -11v-309h-930v95l593 848l-6 12h-355l-52 -190l-144 11v309h907v-83l-601 -860l6 -12h386z" />
    <glyph glyph-name="braceleft" unicode="{" horiz-adv-x="864" 
d="M130 668l96 -0.00390625c40.667 0 69.167 8.16699 85.5 24.5s24.5 44.833 24.5 85.5v619c0 40 7 77.167 21 111.5s33.5 64 58.5 89s54.667 44.5 89 58.5s71.5 21 111.5 21h188v-116h-21c-60.667 0 -104.167 -13.167 -130.5 -39.5s-39.5 -69.833 -39.5 -130.5v-563
c0 -41.333 -4.33301 -75.666 -13 -102.999s-20 -49.166 -34 -65.499s-30 -27.833 -48 -34.5s-36.333 -10 -55 -10v-10c18.667 0 37 -3.33301 55 -10s34 -18.167 48 -34.5s25.333 -38.166 34 -65.499s13 -61.666 13 -102.999v-563c0 -60.667 13.167 -104.167 39.5 -130.5
s69.833 -39.5 130.5 -39.5h21v-116h-188c-40 0 -77.167 7 -111.5 21s-64 33.5 -89 58.5s-44.5 54.667 -58.5 89s-21 71.5 -21 111.5v619c0 40.667 -8.16699 69.167 -24.5 85.5s-44.833 24.5 -85.5 24.5h-96v116z" />
    <glyph glyph-name="bar" unicode="|" horiz-adv-x="658" 
d="M245 1670h168v-2207h-168v2207z" />
    <glyph glyph-name="braceright" unicode="}" horiz-adv-x="864" 
d="M734 552l-96 0.00390625c-40.667 0 -69.167 -8.16699 -85.5 -24.5s-24.5 -44.833 -24.5 -85.5v-619c0 -40 -7 -77.167 -21 -111.5s-33.5 -64 -58.5 -89s-54.667 -44.5 -89 -58.5s-71.5 -21 -111.5 -21h-188v116h21c60.667 0 104.167 13.167 130.5 39.5
s39.5 69.833 39.5 130.5v563c0 41.333 5 75.666 15 102.999s22.5 49.166 37.5 65.499s31.167 27.833 48.5 34.5s33.666 10 48.999 10v10c-15.333 0 -31.666 3.33301 -48.999 10s-33.5 18.167 -48.5 34.5s-27.5 38.166 -37.5 65.499s-15 61.666 -15 102.999v563
c0 60.667 -13.167 104.167 -39.5 130.5s-69.833 39.5 -130.5 39.5h-21v116h188c40 0 77.167 -7 111.5 -21s64 -33.5 89 -58.5s44.5 -54.667 58.5 -89s21 -71.5 21 -111.5v-619c0 -40.667 8.16699 -69.167 24.5 -85.5s44.833 -24.5 85.5 -24.5h96v-116z" />
    <glyph glyph-name="asciitilde" unicode="~" horiz-adv-x="1281" 
d="M140 574c0 37.333 6.66797 70.333 20.001 99s31.5 52.667 54.5 72s50.333 33.833 82 43.5s66.167 14.5 103.5 14.5c25.333 0 53.333 -3.33301 84 -10s62.167 -14.834 94.5 -24.501s64.833 -20.167 97.5 -31.5l92.5 -31.5c29 -9.66699 55 -17.834 78 -24.501
s41.167 -10 54.5 -10c12.667 0 25.167 2.5 37.5 7.5s23.333 12.5 33 22.5s17.5 22.5 23.5 37.5s9 32.5 9 52.5l137 10v-97c0 -35.333 -6 -67.166 -18 -95.499s-29 -52.333 -51 -72s-48.167 -34.834 -78.5 -45.501s-63.833 -16 -100.5 -16
c-22.667 0 -49.334 3.33301 -80.001 10s-63.167 14.834 -97.5 24.501s-68.833 20.167 -103.5 31.5l-98.5 31.5c-31 9.66699 -58.5 17.834 -82.5 24.501s-42.333 10 -55 10c-13.333 0 -26.5 -1.33301 -39.5 -4s-24.5 -7.66699 -34.5 -15s-18 -17.333 -24 -30s-9 -29 -9 -49
l-129 -10v75z" />
    <glyph glyph-name="uni00A0" unicode="&#xa0;" horiz-adv-x="550" 
 />
    <glyph glyph-name="exclamdown" unicode="&#xa1;" horiz-adv-x="647" 
d="M477 986c0 -27.333 -3.16699 -53.5 -9.5 -78.5s-15 -47 -26 -66s-23.833 -34 -38.5 -45s-30.334 -16.5 -47.001 -16.5c-28.667 0 -55.5 3.33301 -80.5 10s-46.667 15.5 -65 26.5s-32.833 24 -43.5 39s-16 30.833 -16 47.5c0 26.667 3.16699 52.334 9.5 77.001
s15 46.5 26 65.5s23.833 34 38.5 45s30.667 16.5 48 16.5c28.667 0 55.334 -3.16699 80.001 -9.5s46.167 -15 64.5 -26s32.833 -23.833 43.5 -38.5s16 -30.334 16 -47.001zM471 -435l-305 -22l-20 22l72 1110h181z" />
    <glyph glyph-name="cent" unicode="&#xa2;" horiz-adv-x="1080" 
d="M110 492c0 201.333 47.001 353.999 141.001 457.999c73.333 80.667 168 130.334 284 149.001v254h158v-248c38 -2 77 -7 117 -15c58 -10.667 111.667 -26 161 -46l19 -254l-170 -23l-73 190c-18.667 3.33301 -36.667 5.66602 -54 6.99902v-846
c41.333 0.666992 88.666 8.33398 141.999 23.001c56 15.333 105 32 147 50v-116c-50.667 -29.333 -110 -53 -178 -71c-36.667 -9.33301 -73.667 -16 -111 -20v-229h-158v225c-123.333 9.33301 -222 45 -296 107c-86 72.667 -129 176.667 -129 312v93zM529.001 954.999
c-30.667 -7.33301 -57 -16.668 -79 -28.001c-13.333 -44.667 -25 -100.667 -35 -168s-15 -136.333 -15 -207v-109c0 -106.667 24.333 -187.667 73 -243c18 -19.333 38.667 -35.666 62 -48.999v805c-2 0 -4 -0.333008 -6 -1z" />
    <glyph glyph-name="sterling" unicode="&#xa3;" horiz-adv-x="1135" 
d="M79 118l141.004 29.001c0 0.666992 1.83301 6 5.5 16s7.5 23.5 11.5 40.5s7.66699 37 11 60s5 48.167 5 75.5c0 18.667 -0.666992 36.834 -2 54.501s-3.5 36 -6.5 55s-6.83301 38.833 -11.5 59.5s-10.334 43 -17.001 67h-126l-20 109l107 28
c-8 28.667 -14.833 55.5 -20.5 80.5s-10.334 49.167 -14.001 72.5s-6.33398 47.166 -8.00098 71.499s-2.5 50.5 -2.5 78.5c0 48 9.16699 93.667 27.5 137s47.166 81.5 86.499 114.5s89.833 59.333 151.5 79s136.167 29.5 223.5 29.5c53.333 0 101.5 -4.33301 144.5 -13
s79.833 -18.334 110.5 -29.001c36 -12 67.667 -25.667 95 -41v-297l-146 -15l-75 236c-11.333 3.33301 -24.333 6.33301 -39 9c-12.667 2.66699 -27.667 5 -45 7s-36.666 3 -57.999 3c-23.333 0 -44.666 -1.66699 -63.999 -5s-36 -7 -50 -11
c-16.667 -4.66699 -31.334 -9.66699 -44.001 -15c-5.33301 -15.333 -10 -32 -14 -50c-3.33301 -15.333 -6.5 -33.833 -9.5 -55.5s-4.5 -45.167 -4.5 -70.5c0 -52 3.66699 -102.5 11 -151.5s17.666 -99.833 30.999 -152.5h389v-149h-348c9.33301 -36 16.333 -70 21 -102
s7 -64.667 7 -98c0 -32 -2.33301 -61.833 -7 -89.5s-9.66699 -51.5 -15 -71.5c-6.66699 -24 -13.667 -45.667 -21 -65h318l83 193l144 -22l-25 -320h-911z" />
    <glyph glyph-name="currency" unicode="&#xa4;" horiz-adv-x="1248" 
d="M132 175l159.999 191.999c-23.333 31.333 -41.333 65.5 -54 102.5s-19 76.5 -19 118.5c0 38.667 5.66699 75.834 17 111.501s27.666 68.5 48.999 98.5l-155 185l154 129l155 -184c27.333 13.333 56 23.5 86 30.5s61.667 10.5 95 10.5c32 0 63 -3.5 93 -10.5
s58.667 -17.167 86 -30.5l154 184l155 -131l-154 -183c21.333 -30.667 37.833 -63.667 49.5 -99s17.5 -72.333 17.5 -111c0 -42 -6.66699 -81.833 -20 -119.5s-31.666 -72.167 -54.999 -103.5l161 -191l-154 -128l-165 196c-52 -23.333 -108 -35 -168 -35
c-30 0 -59.167 3 -87.5 9s-55.166 14.667 -80.499 26l-165 -197zM444.999 587.999c0 -30.667 4.66699 -57.667 14 -81s21.833 -42.833 37.5 -58.5s34.167 -27.5 55.5 -35.5s44 -12 68 -12s46.5 4 67.5 12s39.5 19.833 55.5 35.5s28.5 35.167 37.5 58.5s13.5 50.333 13.5 81
s-4.5 57.667 -13.5 81s-21.5 42.833 -37.5 58.5s-34.5 27.5 -55.5 35.5s-43.5 12 -67.5 12s-46.667 -4 -68 -12s-39.833 -19.833 -55.5 -35.5s-28.167 -35.167 -37.5 -58.5s-14 -50.333 -14 -81z" />
    <glyph glyph-name="yen" unicode="&#xa5;" horiz-adv-x="1216" 
d="M219 400h257v128h-257v167h188l-320 508l-117 31l20 119h520l20 -119l-142 -27l277 -444l264 444l-135 27l20 119h422l20 -119l-113 -31l-303 -508h182v-167h-246v-128h246v-167h-246v-81l142 -34l-20 -118h-545l-20 118l143 34v81h-257v167z" />
    <glyph glyph-name="brokenbar" unicode="&#xa6;" horiz-adv-x="658" 
d="M245 320h168v-857h-168v857zM245 1670h168v-857h-168v857z" />
    <glyph glyph-name="section" unicode="&#xa7;" horiz-adv-x="1209" 
d="M759 1047c70.667 -34 131.664 -66.8301 182.997 -98.4971s93.833 -63.834 127.5 -96.501s58.667 -66.5 75 -101.5s24.5 -72.5 24.5 -112.5c0 -33.333 -4.83301 -63.333 -14.5 -90s-23.5 -50.5 -41.5 -71.5s-39.5 -39.833 -64.5 -56.5s-52.833 -31.334 -83.5 -44.001
c24 -17.333 44.5 -34.333 61.5 -51s31 -34.167 42 -52.5s19 -38 24 -59s7.5 -44.167 7.5 -69.5c0 -94.667 -42.5 -163.667 -127.5 -207s-210.833 -65 -377.5 -65c-60 0 -113.667 3.5 -161 10.5s-88 15.167 -122 24.5c-40 10 -75.333 21.667 -106 35l22 280h150l25 -187
c14.667 -4.66699 32.334 -8.66699 53.001 -12c17.333 -3.33301 38.833 -6 64.5 -8s55.5 -3 89.5 -3s64 1.16699 90 3.5s48 5.16602 66 8.49902c21.333 3.33301 39.333 7.33301 54 12c1.33301 6.66699 3 14 5 22c1.33301 7.33301 2.5 15.5 3.5 24.5s1.5 19.167 1.5 30.5
c0 16.667 -5.66699 32.334 -17 47.001s-30.333 30.334 -57 47.001s-61.667 35.5 -105 56.5l-161 75.5c-62.667 28.667 -117.167 57.5 -163.5 86.5s-84.833 59.167 -115.5 90.5s-53.5 64.666 -68.5 99.999s-22.5 74.333 -22.5 117c0 32 5 60.833 15 86.5
s23.667 49.167 41 70.5s38.166 40.666 62.499 57.999s50.5 33 78.5 47c-39.333 30.667 -68.833 62.667 -88.5 96s-29.5 72.666 -29.5 117.999c0 38 7.83301 73.833 23.5 107.5s42.334 62.834 80.001 87.501s87.834 44.167 150.501 58.5s140.667 21.5 234 21.5
c60.667 0 114.167 -3.5 160.5 -10.5s85.5 -14.833 117.5 -23.5c37.333 -10 70 -21.333 98 -34l-24 -280h-151l-24 187c-14.667 4 -31.334 7.33301 -50.001 10c-16 2.66699 -35.667 5.16699 -59 7.5s-50 3.5 -80 3.5c-26 0 -50.667 -1.16699 -74 -3.5s-44 -4.83301 -62 -7.5
c-21.333 -2.66699 -40.666 -6 -57.999 -10c-2 -6 -4 -12.667 -6 -20c-1.33301 -6.66699 -2.66602 -14.667 -3.99902 -24s-2 -20 -2 -32c0 -16 4.66699 -30.5 14 -43.5s25 -26.5 47 -40.5s51.667 -30.167 89 -48.5zM627.997 569.003l112.5 -61.001l95.5 -53
c20 16 35.5 33.667 46.5 53s16.5 40.666 16.5 63.999c0 24.667 -4.33301 46 -13 64s-23.667 35.667 -45 53s-49.833 36 -85.5 56l-133.5 72l-96 50.5c-30 15.667 -58.333 31.167 -85 46.5c-18 -16.667 -31 -34.167 -39 -52.5s-12 -38.166 -12 -59.499
c0 -22 3.5 -41.667 10.5 -59s19.5 -34.666 37.5 -51.999s42.333 -35.5 73 -54.5s69.667 -41.5 117 -67.5z" />
    <glyph glyph-name="dieresis" unicode="&#xa8;" horiz-adv-x="1035" 
d="M150 1389c0 20.667 2.83398 40.167 8.50098 58.5s13.334 34.333 23.001 48s21 24.5 34 32.5s26.5 12 40.5 12c20.667 0 40.167 -2.83301 58.5 -8.5s34.166 -13.5 47.499 -23.5s23.833 -21.5 31.5 -34.5s11.5 -26.833 11.5 -41.5c0 -20 -2.83301 -39 -8.5 -57
s-13.167 -34 -22.5 -48s-20.5 -25 -33.5 -33s-26.5 -12 -40.5 -12c-21.333 0 -41 2.83301 -59 8.5s-33.833 13.5 -47.5 23.5s-24.334 21.5 -32.001 34.5s-11.5 26.5 -11.5 40.5zM630.001 1389c0 20.667 2.83301 40.167 8.5 58.5s13.167 34.333 22.5 48s20.5 24.5 33.5 32.5
s26.5 12 40.5 12c20.667 0 40.167 -2.83301 58.5 -8.5s34.333 -13.5 48 -23.5s24.334 -21.5 32.001 -34.5s11.5 -26.833 11.5 -41.5c0 -20 -2.83301 -39 -8.5 -57s-13.334 -34 -23.001 -48s-21 -25 -34 -33s-26.833 -12 -41.5 -12c-21.333 0 -41 2.83301 -59 8.5
s-33.5 13.5 -46.5 23.5s-23.333 21.5 -31 34.5s-11.5 26.5 -11.5 40.5z" />
    <glyph glyph-name="copyright" unicode="&#xa9;" horiz-adv-x="1347" 
d="M359 953c0 113.333 29.5 200.334 88.5 261.001s142.167 91 249.5 91c30.667 0 58 -2 82 -6s44.667 -8.33301 62 -13c20 -6 37.333 -12.333 52 -19l12 -203l-98 -14l-44 137c-4.66699 2 -10.334 4 -17.001 6c-5.33301 1.33301 -12.166 2.66602 -20.499 3.99902
s-18.166 2 -29.499 2c-14.667 0 -27.834 -1 -39.501 -3s-21.5 -4 -29.5 -6c-9.33301 -2.66699 -17.666 -5.66699 -24.999 -9c-4.66699 -16 -8.66699 -35 -12 -57c-3.33301 -18.667 -6 -41 -8 -67s-3 -55.667 -3 -89v-53c0 -38.667 3.33301 -71.5 10 -98.5s16 -49 28 -66
s26 -29.333 42 -37s33.333 -11.5 52 -11.5c25.333 0 49.5 2.33301 72.5 7s43.167 10 60.5 16c20.667 6.66699 39.667 14.334 57 23.001v-94c-18.667 -11.333 -39.334 -21.333 -62.001 -30c-19.333 -7.33301 -42.5 -14 -69.5 -20s-57.167 -9 -90.5 -9
c-45.333 0 -87.5 6.83301 -126.5 20.5s-72.833 33.167 -101.5 58.5s-51.167 56.166 -67.5 92.499s-24.5 77.5 -24.5 123.5v63zM237 949.001c0 -60.667 11.333 -117.5 34 -170.5s53.834 -99.333 93.501 -139s86 -70.834 139 -93.501s109.833 -34 170.5 -34
c60 0 116.5 11.333 169.5 34s99.333 53.834 139 93.501s70.834 86 93.501 139s34 109.833 34 170.5c0 60 -11.333 116.5 -34 169.5s-53.834 99.333 -93.501 139s-86 70.834 -139 93.501s-109.5 34 -169.5 34c-60.667 0 -117.5 -11.333 -170.5 -34
s-99.333 -53.834 -139 -93.501s-70.834 -86 -93.501 -139s-34 -109.5 -34 -169.5zM60 949.001c0 84.667 16.166 164.335 48.499 239.002s76.166 139.667 131.499 195s120.333 99 195 131s154.334 48 239.001 48s164.334 -16 239.001 -48s139.667 -75.667 195 -131
s99 -120.333 131 -195s48 -154.334 48 -239.001s-16 -164.334 -48 -239.001s-75.667 -139.667 -131 -195s-120.333 -99.166 -195 -131.499s-154.334 -48.5 -239.001 -48.5c-56.667 0 -111.167 7.33301 -163.5 22s-101.166 35.334 -146.499 62.001
s-86.666 58.667 -123.999 96s-69.333 78.666 -96 123.999s-47.334 94.166 -62.001 146.499s-22 106.833 -22 163.5z" />
    <glyph glyph-name="ordfeminine" unicode="&#xaa;" horiz-adv-x="633" 
d="M525 917l91.998 -17l-10 -79l-218 -11l-26 73c-5.33301 -6 -13 -13.167 -23 -21.5s-22.5 -16.333 -37.5 -24s-32.333 -14.167 -52 -19.5s-41.834 -8 -66.501 -8c-52 0 -94 11.167 -126 33.5s-48 54.5 -48 96.5c0 66.667 27 117.334 81 152.001s140.333 52 259 52v28
c0 15.333 -1.66699 29.833 -5 43.5s-8.66602 25.667 -15.999 36s-17.333 18.5 -30 24.5s-28 9 -46 9c-10 0 -19.5 -0.333008 -28.5 -1s-17.167 -1.66699 -24.5 -3c-8 -1.33301 -15.333 -2.66602 -22 -3.99902l-30 -116l-99 5v182c18.667 4.66699 39.334 9 62.001 13
c19.333 3.33301 42.5 6.5 69.5 9.5s56.833 4.5 89.5 4.5c38.667 0 73.834 -3.33301 105.501 -10s58.5 -17.334 80.5 -32.001s39 -33.834 51 -57.501s18 -52.5 18 -86.5v-272zM349.998 1054c-27.333 0 -50.501 -1.5 -69.501 -4.5s-34.833 -6.16699 -47.5 -9.5
c-14.667 -4 -27 -8.66699 -37 -14c-2 -4.66699 -4 -10 -6 -16c-3.33301 -11.333 -5 -25.333 -5 -42c0 -24.667 4.83301 -42.167 14.5 -52.5s22.834 -15.5 39.501 -15.5c14 0 27.5 3.33301 40.5 10s24.833 14 35.5 22c12 9.33301 23.667 20 35 32v90z" />
    <glyph glyph-name="guillemotleft" unicode="&#xab;" horiz-adv-x="1103" 
d="M445 115l-395 421v60l395 421h195v-22l-300 -419v-20l300 -419v-22h-195zM798 159l-266 389v36l266 389h195v-22l-167 -385l167 -385v-22h-195z" />
    <glyph glyph-name="logicalnot" unicode="&#xac;" horiz-adv-x="1243" 
d="M160 797h923v-492h-197v305h-726v187z" />
    <glyph glyph-name="uni00AD" unicode="&#xad;" horiz-adv-x="959" 
d="M190 685l629 41l-30 -189l-629 -41z" />
    <glyph glyph-name="registered" unicode="&#xae;" horiz-adv-x="1347" 
d="M60 949c0 84.667 16.166 164.335 48.499 239.002s76.166 139.667 131.499 195s120.333 99 195 131s154.334 48 239.001 48s164.334 -16 239.001 -48s139.667 -75.667 195 -131s99 -120.333 131 -195s48 -154.334 48 -239.001s-16 -164.334 -48 -239.001
s-75.667 -139.667 -131 -195s-120.333 -99.166 -195 -131.499s-154.334 -48.5 -239.001 -48.5c-56.667 0 -111.167 7.33301 -163.5 22s-101.166 35.334 -146.499 62.001s-86.666 58.667 -123.999 96s-69.333 78.666 -96 123.999s-47.334 94.166 -62.001 146.499
s-22 106.833 -22 163.5zM236.999 949.001c0 -60.667 11.333 -117.5 34 -170.5s53.834 -99.333 93.501 -139s86 -70.834 139 -93.501s109.833 -34 170.5 -34c60 0 116.5 11.333 169.5 34s99.333 53.834 139 93.501s70.834 86 93.501 139s34 109.833 34 170.5
c0 60 -11.333 116.5 -34 169.5s-53.834 99.333 -93.501 139s-86 70.834 -139 93.501s-109.5 34 -169.5 34c-60.667 0 -117.5 -11.333 -170.5 -34s-99.333 -53.834 -139 -93.501s-70.834 -86 -93.501 -139s-34 -109.5 -34 -169.5zM433.999 1179l-70.001 17l9 65h321
c77.333 0 136.5 -14 177.5 -42s61.5 -73.333 61.5 -136c0 -44 -8.16699 -79 -24.5 -105s-36.166 -48 -59.499 -66v-6l76 -195l60 -11l-9 -65h-196l-95 261h-59v-181l70 -15l-9 -65h-314l-9 65l70 15v464zM625.998 1167l0.000976562 -176.999h26c22.667 0 40.667 1 54 3
c7.33301 1.33301 13.666 2.66602 18.999 3.99902c2 8 4.33301 16.667 7 26l4.5 27c1.66699 10 2.5 20.667 2.5 32c0 24 -7.33301 44.167 -22 60.5s-39.667 24.5 -75 24.5h-16z" />
    <glyph glyph-name="macron" unicode="&#xaf;" horiz-adv-x="1050" 
d="M150 1493h750l-20 -160h-750z" />
    <glyph glyph-name="degree" unicode="&#xb0;" horiz-adv-x="654" 
d="M80 1305c0 35.333 7 68.666 21 99.999s33 58.666 57 81.999s52.167 41.666 84.5 54.999s67.166 20 104.499 20c36.667 0 71.334 -6.66699 104.001 -20s61 -31.666 85 -54.999s43 -50.666 57 -81.999s21 -64.666 21 -99.999s-7 -68.666 -21 -99.999
s-33 -58.666 -57 -81.999s-52.333 -41.666 -85 -54.999s-67.334 -20 -104.001 -20c-37.333 0 -72.166 6.66699 -104.499 20s-60.5 31.666 -84.5 54.999s-43 50.666 -57 81.999s-21 64.666 -21 99.999zM235 1305c0 -38.667 10.667 -68 32 -88s48 -30 80 -30s58.667 10 80 30
s32 49.333 32 88s-10.667 68 -32 88s-48 30 -80 30s-58.667 -10 -80 -30s-32 -49.333 -32 -88z" />
    <glyph glyph-name="plusminus" unicode="&#xb1;" horiz-adv-x="1103" 
d="M645 1105v-318h298v-187h-298v-318h-187v318h-298v187h298v318h187zM187 187h733v-187h-733v187z" />
    <glyph glyph-name="twosuperior" unicode="&#xb2;" horiz-adv-x="581" 
d="M355 1589c0 33.333 -8.50098 56.4971 -25.501 69.4971s-37.5 19.5 -61.5 19.5c-13.333 0 -25.833 -1.16699 -37.5 -3.5s-22.167 -5.16602 -31.5 -8.49902c-10.667 -3.33301 -20.667 -7.33301 -30 -12l-28 -110l-95 5v166c20.667 10.667 44.334 20 71.001 28
c22.667 7.33301 49.334 14 80.001 20s64 9 100 9c34.667 0 66.667 -3.5 96 -10.5s54.5 -17.5 75.5 -31.5s37.333 -31.5 49 -52.5s17.5 -45.833 17.5 -74.5c0 -30 -7.5 -61 -22.5 -93s-35.167 -64.667 -60.5 -98s-54.5 -67.166 -87.5 -101.499l-102.5 -105.5l2 -5h148l41 106
l92 -11l-11 -210h-506v82l130 130.5c40 40.333 74.667 77.833 104 112.5s52.166 66.834 68.499 96.501s24.5 57.167 24.5 82.5z" />
    <glyph glyph-name="threesuperior" unicode="&#xb3;" horiz-adv-x="548" 
d="M239 1073c-26.667 0 -52.8281 2.00098 -78.4951 6.00098s-48.5 8.66699 -68.5 14c-24 6 -46.667 13 -68 21v175l93 6l26 -106c9.33301 -4.66699 19.666 -8.33398 30.999 -11.001c9.33301 -2.66699 20.166 -5 32.499 -7s25.166 -3 38.499 -3c28 0 52 8.83301 72 26.5
s30 43.834 30 78.501c0 22 -2.83301 40.833 -8.5 56.5s-13.334 28.167 -23.001 37.5s-21.167 16.166 -34.5 20.499s-27.666 6.5 -42.999 6.5h-54v94h56c28 0 48.833 8.83301 62.5 26.5s20.5 43.167 20.5 76.5c0 30.667 -7.66699 52.667 -23 66s-35 20 -59 20
c-11.333 0 -22 -0.833008 -32 -2.5s-19 -3.5 -27 -5.5c-9.33301 -2.66699 -18 -5.33398 -26 -8.00098l-26 -106l-93 6v174c21.333 6.66699 44.333 12.667 69 18c21.333 4.66699 45.5 9 72.5 13s55.5 6 85.5 6c78.667 0 138.167 -14.167 178.5 -42.5
s60.5 -68.166 60.5 -119.499c0 -24 -3.83301 -44.833 -11.5 -62.5s-17.334 -33 -29.001 -46s-24.334 -23.833 -38.001 -32.5s-26.167 -16 -37.5 -22c17.333 -5.33301 34.333 -12.5 51 -21.5s31.5 -20 44.5 -33s23.5 -28.167 31.5 -45.5s12 -37.333 12 -60
c0 -36 -7 -67.333 -21 -94s-33.833 -49 -59.5 -67s-56 -31.333 -91 -40s-73.5 -13 -115.5 -13z" />
    <glyph glyph-name="acute" unicode="&#xb4;" horiz-adv-x="855" 
d="M200 1307l183 363l272 -10v-66l-300 -329l-155 10v32z" />
    <glyph glyph-name="uni00B5" unicode="&#xb5;" horiz-adv-x="1368" 
d="M1155 152l163 -33.998l-20 -118c-17.333 -4.66699 -36 -8.33398 -56 -11.001c-17.333 -3.33301 -37 -6 -59 -8s-45 -3 -69 -3c-35.333 0 -65.833 4.83301 -91.5 14.5s-47.5 22.167 -65.5 37.5s-32.667 32.333 -44 51s-20.666 37 -27.999 55
c-13.333 -17.333 -29.166 -35.333 -47.499 -54s-39.333 -35.667 -63 -51s-50.334 -28 -80.001 -38s-62.834 -15 -99.501 -15c-22.667 0 -43 2.5 -61 7.5s-33.5 11.167 -46.5 18.5s-24 15 -33 23s-15.833 14.667 -20.5 20l-10 -6l49 -476l-290 -22v1390l-163 34l20 118
l433 22v-704c0 -55.333 4.33301 -101.333 13 -138s20.667 -65.834 36 -87.501s33.5 -37 54.5 -46s43.833 -13.5 68.5 -13.5c33.333 0 63.5 6.5 90.5 19.5s50.167 27.5 69.5 43.5c22 18.667 42 40 60 64v688l-193 34l20 118l463 22v-955z" />
    <glyph glyph-name="paragraph" unicode="&#xb6;" horiz-adv-x="1262" 
d="M575 485c-62 0 -122.168 8.00195 -180.501 24.002s-110 41 -155 75s-81.167 77.667 -108.5 131s-41 117.666 -41 192.999c0 74.667 12.333 140 37 196s59.167 102.333 103.5 139s97 64.167 158 82.5s127.5 27.5 199.5 27.5h634l20 -118l-162 -34v-1073
c0 -69.333 -11.667 -130.666 -35 -183.999s-55.166 -98.333 -95.499 -135s-87.833 -64.334 -142.5 -83.001s-113 -28 -175 -28c-43.333 0 -82.833 2.33301 -118.5 7s-66.167 10 -91.5 16c-30 7.33301 -57 15.333 -81 24v132c20 -6 41.667 -11.333 65 -16
c20 -4 43.5 -7.5 70.5 -10.5s56.5 -4.5 88.5 -4.5c35.333 0 66.5 5 93.5 15s49.5 26.333 67.5 49s31.5 52.167 40.5 88.5s13.5 81.166 13.5 134.499v1071h-140v-719h-65z" />
    <glyph glyph-name="periodcentered" unicode="&#xb7;" horiz-adv-x="572" 
d="M140 648c0 24.667 2.83301 48 8.5 70s13.5 41.5 23.5 58.5s21.5 30.5 34.5 40.5s26.833 15 41.5 15c26 0 50.167 -2.83301 72.5 -8.5s41.833 -13.5 58.5 -23.5s29.667 -21.667 39 -35s14 -27.666 14 -42.999c0 -24 -2.83301 -47.167 -8.5 -69.5s-13.5 -42 -23.5 -59
s-21.667 -30.5 -35 -40.5s-27.333 -15 -42 -15c-26 0 -50 2.83301 -72 8.5s-41.333 13.5 -58 23.5s-29.667 21.667 -39 35s-14 27.666 -14 42.999z" />
    <glyph glyph-name="cedilla" unicode="&#xb8;" horiz-adv-x="858" 
d="M505 37l-51.9961 -132.002c31.333 -6 59.666 -13.667 84.999 -23s46.833 -21.166 64.5 -35.499s31.334 -31.333 41.001 -51s14.5 -43.167 14.5 -70.5c0 -26.667 -5.83301 -51.167 -17.5 -73.5s-28.334 -41.5 -50.001 -57.5s-47.834 -28.5 -78.501 -37.5
s-64.667 -13.5 -102 -13.5c-30.667 0 -58.667 2.33301 -84 7s-47.333 10 -66 16c-22 7.33301 -42 15.333 -60 24v113c18.667 -7.33301 38.334 -14 59.001 -20c17.333 -5.33301 36.666 -10 57.999 -14s42.666 -6 63.999 -6c24.667 0 44 1 58 3l21 4
c0.666992 4.66699 1.66699 9.66699 3 15c1.33301 4.66699 2.33301 9.5 3 14.5s1 10.167 1 15.5c0 11.333 -2.33301 21.5 -7 30.5s-12.667 17 -24 24s-26.333 13.333 -45 19s-42.334 10.834 -71.001 15.501l-46 72l59 161h172z" />
    <glyph glyph-name="onesuperior" unicode="&#xb9;" horiz-adv-x="446" 
d="M41 1164l102 17v467h-113l-5 57l182 57h116v-581l101 -17l-10 -79h-363z" />
    <glyph glyph-name="ordmasculine" unicode="&#xba;" horiz-adv-x="587" 
d="M286 810c-46.667 0 -87.165 5.17188 -121.498 15.5049s-63 25.166 -86 44.499s-40.167 42.666 -51.5 69.999s-17 57.666 -17 90.999v46c0 48.667 7 91.5 21 128.5s33.5 68 58.5 93s54.667 44 89 57s71.833 19.5 112.5 19.5c41.333 0 79.166 -4.5 113.499 -13.5
s63.833 -22.667 88.5 -41s43.834 -41.833 57.501 -70.5s20.5 -62.334 20.5 -101.001v-47c0 -40.667 -5.83301 -78.834 -17.5 -114.501s-29.334 -66.667 -53.001 -93s-53.334 -47 -89.001 -62s-77.5 -22.5 -125.5 -22.5zM396.002 1132
c0 29.333 -3.33496 53.832 -10.002 73.499s-15.5 35.334 -26.5 47.001s-23.333 20 -37 25s-27.5 7.5 -41.5 7.5c-9.33301 0 -18.5 -1 -27.5 -3s-17.167 -4.33301 -24.5 -7c-8.66699 -2.66699 -16.667 -6 -24 -10c-4 -12.667 -7.33301 -27 -10 -43
c-2.66699 -14 -5 -30.667 -7 -50s-3 -41 -3 -65v-59c0 -26 3.33301 -48.333 10 -67s15.5 -34 26.5 -46s23.333 -20.833 37 -26.5s27.834 -8.5 42.501 -8.5c8.66699 0 17.334 1 26.001 3s16.667 4.33301 24 7c8 2.66699 16.333 6 25 10c4 11.333 7.33301 24.666 10 39.999
c2.66699 13.333 5 29.333 7 48s3 40.334 3 65.001v59z" />
    <glyph glyph-name="guillemotright" unicode="&#xbb;" horiz-adv-x="1103" 
d="M463 115v22l300 419v20l-300 419v22h195l395 -421v-60l-395 -421h-195zM110 159v22l167 385l-167 385v22h195l266 -389v-36l-266 -389h-195z" />
    <glyph glyph-name="onequarter" unicode="&#xbc;" horiz-adv-x="1339" 
d="M56 755l102 17v467h-113l-5 57l182 57h116v-581l101 -17l-10 -79h-363zM1078 1353h145v-20l-979 -1333h-145v20zM895 79l116 17v75h-264l-12 73l280 433h157l-275 -411h114v108h180v-108h86l12 -80l-98 -17v-73l96 -17l-10 -79h-372z" />
    <glyph glyph-name="onehalf" unicode="&#xbd;" horiz-adv-x="1339" 
d="M56 755l102 17v467h-113l-5 57l182 57h116v-581l101 -17l-10 -79h-363zM1078 1353h145v-20l-979 -1333h-145v20zM1148 504c0 33.333 -8.50098 56.4971 -25.501 69.4971s-37.5 19.5 -61.5 19.5c-13.333 0 -25.833 -1.16699 -37.5 -3.5s-22.167 -5.16602 -31.5 -8.49902
c-10.667 -3.33301 -20.667 -7.33301 -30 -12l-28 -110l-95 5v166c20.667 10.667 44.334 20 71.001 28c22.667 7.33301 49.334 14 80.001 20s64 9 100 9c34.667 0 66.667 -3.5 96 -10.5s54.5 -17.5 75.5 -31.5s37.333 -31.5 49 -52.5s17.5 -45.833 17.5 -74.5
c0 -30 -7.5 -61 -22.5 -93s-35.167 -64.667 -60.5 -98s-54.5 -67.166 -87.5 -101.499l-102.5 -105.5l2 -5h148l41 106l92 -11l-11 -210h-506v82l130 130.5c40 40.333 74.667 77.833 104 112.5s52.166 66.834 68.499 96.501s24.5 57.167 24.5 82.5z" />
    <glyph glyph-name="threequarters" unicode="&#xbe;" horiz-adv-x="1339" 
d="M231 676c-26.667 0 -52.8281 2.00098 -78.4951 6.00098s-48.5 8.66699 -68.5 14c-24 6 -46.667 13 -68 21v175l93 6l26 -106c9.33301 -4.66699 19.666 -8.33398 30.999 -11.001c9.33301 -2.66699 20.166 -5 32.499 -7s25.166 -3 38.499 -3c28 0 52 8.83301 72 26.5
s30 43.834 30 78.501c0 22 -2.83301 40.833 -8.5 56.5s-13.334 28.167 -23.001 37.5s-21.167 16.166 -34.5 20.499s-27.666 6.5 -42.999 6.5h-54v94h56c28 0 48.833 8.83301 62.5 26.5s20.5 43.167 20.5 76.5c0 30.667 -7.66699 52.667 -23 66s-35 20 -59 20
c-11.333 0 -22 -0.833008 -32 -2.5s-19 -3.5 -27 -5.5c-9.33301 -2.66699 -18 -5.33398 -26 -8.00098l-26 -106l-93 6v174c21.333 6.66699 44.333 12.667 69 18c21.333 4.66699 45.5 9 72.5 13s55.5 6 85.5 6c78.667 0 138.167 -14.167 178.5 -42.5
s60.5 -68.166 60.5 -119.499c0 -24 -3.83301 -44.833 -11.5 -62.5s-17.334 -33 -29.001 -46s-24.334 -23.833 -38.001 -32.5s-26.167 -16 -37.5 -22c17.333 -5.33301 34.333 -12.5 51 -21.5s31.5 -20 44.5 -33s23.5 -28.167 31.5 -45.5s12 -37.333 12 -60
c0 -36 -7 -67.333 -21 -94s-33.833 -49 -59.5 -67s-56 -31.333 -91 -40s-73.5 -13 -115.5 -13zM1078.01 1353h145v-20l-979 -1333h-145v20zM895.006 79.001l116 17v75h-264l-12 73l280 433h157l-275 -411h114v108h180v-108h86l12 -80l-98 -17v-73l96 -17l-10 -79h-372z" />
    <glyph glyph-name="questiondown" unicode="&#xbf;" horiz-adv-x="1029" 
d="M489 375c26.667 24 44.8311 45.499 54.498 64.499s14.5 39.167 14.5 60.5c0 22.667 -6.33301 39.834 -19 51.501s-30.667 17.5 -54 17.5c-13.333 0 -27.5 -1.66699 -42.5 -5s-28.833 -7 -41.5 -11c-14.667 -4.66699 -29.334 -9.66699 -44.001 -15v121
c18 9.33301 38.667 17.666 62 24.999c20 6 44.333 11.667 73 17s61 8 97 8c38.667 0 73.834 -4 105.501 -12s58.834 -20.333 81.501 -37s40.334 -37.334 53.001 -62.001s19 -54 19 -88c0 -27.333 -3.83301 -53.166 -11.5 -77.499s-19.5 -48.666 -35.5 -72.999
s-36.333 -49.833 -61 -76.5s-54 -55.667 -88 -87l-182 -168c-24 -22 -43.833 -41.833 -59.5 -59.5s-28.334 -34.5 -38.001 -50.5s-16.5 -32 -20.5 -48s-6 -33.667 -6 -53c0 -18 3.66699 -35.167 11 -51.5s18.833 -30.5 34.5 -42.5s35.334 -21.667 59.001 -29
s51.834 -11 84.501 -11c30 0 55.833 1.66699 77.5 5s40.167 7 55.5 11c17.333 4.66699 32.333 10 45 16l70 225l152 -17v-297c-36 -16 -76.333 -30 -121 -42c-38 -10.667 -83.5 -20.167 -136.5 -28.5s-111.167 -12.5 -174.5 -12.5c-69.333 0 -131.5 6 -186.5 18
s-101.833 29.333 -140.5 52s-68.334 50.5 -89.001 83.5s-31 70.5 -31 112.5c0 40.667 4.83301 76.834 14.5 108.501s25.167 63 46.5 94s49.333 63.667 84 98s77 74.166 127 119.499zM765.997 985.999c0 -27.333 -3.16699 -53.5 -9.5 -78.5s-15 -47 -26 -66
s-23.833 -34 -38.5 -45s-30.334 -16.5 -47.001 -16.5c-28.667 0 -55.5 3.33301 -80.5 10s-46.667 15.5 -65 26.5s-32.833 24 -43.5 39s-16 30.833 -16 47.5c0 26.667 3.16699 52.334 9.5 77.001s15 46.5 26 65.5s23.833 34 38.5 45s30.667 16.5 48 16.5
c28.667 0 55.334 -3.16699 80.001 -9.5s46.167 -15 64.5 -26s32.833 -23.833 43.5 -38.5s16 -30.334 16 -47.001z" />
    <glyph glyph-name="Agrave" unicode="&#xc0;" 
d="M-26 118l100 28l433 1207h263l423 -1207l99 -28l-20 -118h-494l-20 118l132 28l-82 240h-453l-84 -240l132 -28l-20 -118h-389zM406 535h352l-166 488h-16zM797 1471l-165 -11l-395 248v66l282 10l278 -281v-32z" />
    <glyph glyph-name="Aacute" unicode="&#xc1;" 
d="M-26 118l100 28l433 1207h263l423 -1207l99 -28l-20 -118h-494l-20 118l132 28l-82 240h-453l-84 -240l132 -28l-20 -118h-389zM406 535h352l-166 488h-16zM480 1503l278 281l282 -10v-66l-395 -248l-165 11v32z" />
    <glyph glyph-name="Acircumflex" unicode="&#xc2;" 
d="M-26 118l100 28l433 1207h263l423 -1207l99 -28l-20 -118h-494l-20 118l132 28l-82 240h-453l-84 -240l132 -28l-20 -118h-389zM406 535h352l-166 488h-16zM1016 1470l-175 -10l-213 171l-206 -171l-145 10v32l263 292l223 -10l253 -282v-32z" />
    <glyph glyph-name="Atilde" unicode="&#xc3;" 
d="M-26 118l100 28l433 1207h263l423 -1207l99 -28l-20 -118h-494l-20 118l132 28l-82 240h-453l-84 -240l132 -28l-20 -118h-389zM406 535h352l-166 488h-16zM167 1523c0 84.667 22.334 148.166 67.001 190.499s105.667 63.5 183 63.5c44 0 88.333 -6.83301 133 -20.5
s87.5 -28.834 128.5 -45.501l113 -45.5c34.333 -13.667 63.166 -20.5 86.499 -20.5c28.667 0 51.334 9.83301 68.001 29.5s25 49.834 25 90.501l137 10v-72c0 -79.333 -20.5 -141.5 -61.5 -186.5s-99.833 -67.5 -176.5 -67.5c-38.667 0 -81 6.83301 -127 20.5
s-91.167 28.834 -135.5 45.501l-123.5 45.5c-38 13.667 -68.333 20.5 -91 20.5c-15.333 0 -28.833 -1.33301 -40.5 -4s-21.834 -7.66699 -30.501 -15s-15.167 -17.333 -19.5 -30s-6.5 -29 -6.5 -49l-129 -10v50z" />
    <glyph glyph-name="Adieresis" unicode="&#xc4;" 
d="M-26 118l100 28l433 1207h263l423 -1207l99 -28l-20 -118h-494l-20 118l132 28l-82 240h-453l-84 -240l132 -28l-20 -118h-389zM406 535h352l-166 488h-16zM243 1577c0 20.667 2.83398 40.168 8.50098 58.501s13.334 34.333 23.001 48s21 24.5 34 32.5s26.5 12 40.5 12
c20.667 0 40.167 -2.83301 58.5 -8.5s34.166 -13.334 47.499 -23.001s23.833 -21.167 31.5 -34.5s11.5 -27.333 11.5 -42c0 -20 -2.83301 -39 -8.5 -57s-13.167 -34 -22.5 -48s-20.5 -25 -33.5 -33s-26.5 -12 -40.5 -12c-21.333 0 -41 2.83301 -59 8.5
s-33.833 13.5 -47.5 23.5s-24.334 21.5 -32.001 34.5s-11.5 26.5 -11.5 40.5zM785.001 1577c0 20.667 2.83301 40.168 8.5 58.501s13.167 34.333 22.5 48s20.5 24.5 33.5 32.5s26.5 12 40.5 12c20.667 0 40.167 -2.83301 58.5 -8.5s34.333 -13.334 48 -23.001
s24.334 -21.167 32.001 -34.5s11.5 -27.333 11.5 -42c0 -20 -2.83301 -39 -8.5 -57s-13.334 -34 -23.001 -48s-21 -25 -34 -33s-26.833 -12 -41.5 -12c-21.333 0 -41 2.83301 -59 8.5s-33.5 13.5 -46.5 23.5s-23.333 21.5 -31 34.5s-11.5 26.5 -11.5 40.5z" />
    <glyph glyph-name="Aring" unicode="&#xc5;" 
d="M-26 118l100 28l433 1207h263l423 -1207l99 -28l-20 -118h-494l-20 118l132 28l-82 240h-453l-84 -240l132 -28l-20 -118h-389zM406 535h352l-166 488h-16zM415 1570c0 38.667 6.50195 72.332 19.502 100.999s30.333 52.5 52 71.5s47 33.167 76 42.5s59.5 14 91.5 14
c29.333 0 57.166 -3.16699 83.499 -9.5s49.5 -16.166 69.5 -29.499s35.833 -30.333 47.5 -51s17.5 -45.667 17.5 -75c0 -40.667 -6.16699 -75.5 -18.5 -104.5s-29.166 -52.833 -50.499 -71.5s-46.5 -32.334 -75.5 -41.001s-60.167 -13 -93.5 -13
c-30.667 0 -59.334 3.16699 -86.001 9.5s-49.834 16.333 -69.501 30s-35.167 30.834 -46.5 51.501s-17 45.667 -17 75zM570.002 1602c0 -34 7.33496 -60.0039 22.002 -78.0039s33.667 -27 57 -27c9.33301 0 17.5 0.333008 24.5 1s13.167 1.66699 18.5 3
c6 1.33301 11.667 3 17 5c1.33301 7.33301 2.66602 16 3.99902 26c1.33301 8.66699 2.5 18.834 3.5 30.501s1.5 24.834 1.5 39.501c0 34 -7.33301 60 -22 78s-33.667 27 -57 27c-7.33301 0 -14 -0.5 -20 -1.5s-11.333 -2.16699 -16 -3.5
c-5.33301 -1.33301 -10 -2.66602 -14 -3.99902c-4 -7.33301 -7.33301 -15.666 -10 -24.999c-2.66699 -8 -4.83398 -18 -6.50098 -30s-2.5 -25.667 -2.5 -41z" />
    <glyph glyph-name="AE" unicode="&#xc6;" horiz-adv-x="1784" 
d="M-34 118l125 31l645 1204h922l24 -320l-123 -22l-83 193h-382v-422h287l34 132l119 -20v-374l-119 -20l-34 133h-287v-484h411l83 193l124 -23l-24 -319h-1037l-20 118l163 34v234h-382l-127 -243l117 -25l-20 -118h-396zM794 535v579l-304 -579h304z" />
    <glyph glyph-name="Ccedilla" unicode="&#xc7;" horiz-adv-x="1186" 
d="M70 604c0 252.667 55.6689 444.334 167.002 575.001s277.333 196 498 196c60.667 0 122.834 -5 186.501 -15s122.5 -24.667 176.5 -44l21 -290l-155 -22l-85 199c-21.333 7.33301 -47.5 13 -78.5 17s-61.833 6 -92.5 6c-50 0 -100.167 -7.33301 -150.5 -22
s-93.166 -33.334 -128.499 -56.001c-16.667 -61.333 -30.667 -132.666 -42 -213.999s-17 -165 -17 -251v-133c0 -138.667 32.833 -243.834 98.5 -315.501s163.167 -107.5 292.5 -107.5c56.667 0 116.834 9.33301 180.501 28s123.834 44 180.501 76v-126
c-59.333 -38.667 -128.333 -69.667 -207 -93c-58.667 -16.667 -118.334 -27.334 -179.001 -32.001l-29 -75c31.333 -6 59.666 -13.667 84.999 -23s46.833 -21.166 64.5 -35.499s31.334 -31.333 41.001 -51s14.5 -43.167 14.5 -70.5c0 -26.667 -5.83301 -51.167 -17.5 -73.5
s-28.334 -41.5 -50.001 -57.5s-47.834 -28.5 -78.501 -37.5s-64.667 -13.5 -102 -13.5c-30.667 0 -58.667 2.33301 -84 7s-47.333 10 -66 16c-22 7.33301 -42 15.333 -60 24v113c18.667 -7.33301 38.334 -14 59.001 -20c17.333 -5.33301 36.666 -10 57.999 -14
s42.666 -6 63.999 -6c24.667 0 44 1 58 3l21 4c0.666992 4.66699 1.66699 9.66699 3 15c1.33301 4.66699 2.33301 9.5 3 14.5s1 10.167 1 15.5c0 11.333 -2.33301 21.5 -7 30.5s-12.667 17 -24 24s-26.333 13.333 -45 19s-42.334 10.834 -71.001 15.501l-46 72l39 107
c-146.667 14 -261.334 58 -344.001 132c-102 91.333 -153 224.666 -153 399.999v89z" />
    <glyph glyph-name="Egrave" unicode="&#xc8;" horiz-adv-x="1203" 
d="M513 633v-484h401l83 193l134 -23l-24 -319h-1017l-20 118l143 34v1049l-143 34l20 118h987l24 -320l-133 -22l-83 193h-372v-422h287l34 112l119 -20v-334l-119 -20l-34 113h-287zM752 1471l-165 -11l-395 248v66l282 10l278 -281v-32z" />
    <glyph glyph-name="Eacute" unicode="&#xc9;" horiz-adv-x="1203" 
d="M513 633v-484h401l83 193l134 -23l-24 -319h-1017l-20 118l143 34v1049l-143 34l20 118h987l24 -320l-133 -22l-83 193h-372v-422h287l34 112l119 -20v-334l-119 -20l-34 113h-287zM435 1503l278 281l282 -10v-66l-395 -248l-165 11v32z" />
    <glyph glyph-name="Ecircumflex" unicode="&#xca;" horiz-adv-x="1203" 
d="M513 633v-484h401l83 193l134 -23l-24 -319h-1017l-20 118l143 34v1049l-143 34l20 118h987l24 -320l-133 -22l-83 193h-372v-422h287l34 112l119 -20v-334l-119 -20l-34 113h-287zM971 1470l-175 -10l-213 171l-206 -171l-145 10v32l263 292l223 -10l253 -282v-32z" />
    <glyph glyph-name="Edieresis" unicode="&#xcb;" horiz-adv-x="1203" 
d="M513 633v-484h401l83 193l134 -23l-24 -319h-1017l-20 118l143 34v1049l-143 34l20 118h987l24 -320l-133 -22l-83 193h-372v-422h287l34 112l119 -20v-334l-119 -20l-34 113h-287zM198 1577c0 20.667 2.83398 40.168 8.50098 58.501s13.334 34.333 23.001 48
s21 24.5 34 32.5s26.5 12 40.5 12c20.667 0 40.167 -2.83301 58.5 -8.5s34.166 -13.334 47.499 -23.001s23.833 -21.167 31.5 -34.5s11.5 -27.333 11.5 -42c0 -20 -2.83301 -39 -8.5 -57s-13.167 -34 -22.5 -48s-20.5 -25 -33.5 -33s-26.5 -12 -40.5 -12
c-21.333 0 -41 2.83301 -59 8.5s-33.833 13.5 -47.5 23.5s-24.334 21.5 -32.001 34.5s-11.5 26.5 -11.5 40.5zM740.001 1577c0 20.667 2.83301 40.168 8.5 58.501s13.167 34.333 22.5 48s20.5 24.5 33.5 32.5s26.5 12 40.5 12c20.667 0 40.167 -2.83301 58.5 -8.5
s34.333 -13.334 48 -23.001s24.334 -21.167 32.001 -34.5s11.5 -27.333 11.5 -42c0 -20 -2.83301 -39 -8.5 -57s-13.334 -34 -23.001 -48s-21 -25 -34 -33s-26.833 -12 -41.5 -12c-21.333 0 -41 2.83301 -59 8.5s-33.5 13.5 -46.5 23.5s-23.333 21.5 -31 34.5
s-11.5 26.5 -11.5 40.5z" />
    <glyph glyph-name="Igrave" unicode="&#xcc;" horiz-adv-x="717" 
d="M211 1201l-143 34l20 118h545l20 -118l-142 -34v-1049l142 -34l-20 -118h-545l-20 118l143 34v1049zM514 1471l-165 -11l-395 248v66l282 10l278 -281v-32z" />
    <glyph glyph-name="Iacute" unicode="&#xcd;" horiz-adv-x="717" 
d="M211 1201l-143 34l20 118h545l20 -118l-142 -34v-1049l142 -34l-20 -118h-545l-20 118l143 34v1049zM196 1503l278 281l282 -10v-66l-395 -248l-165 11v32z" />
    <glyph glyph-name="Icircumflex" unicode="&#xce;" horiz-adv-x="717" 
d="M211 1201l-143 34l20 118h545l20 -118l-142 -34v-1049l142 -34l-20 -118h-545l-20 118l143 34v1049zM732 1470l-175 -10l-213 171l-206 -171l-145 10v32l263 292l223 -10l253 -282v-32z" />
    <glyph glyph-name="Idieresis" unicode="&#xcf;" horiz-adv-x="717" 
d="M211 1201l-143 34l20 118h545l20 -118l-142 -34v-1049l142 -34l-20 -118h-545l-20 118l143 34v1049zM-41 1577c0 20.667 2.83398 40.168 8.50098 58.501s13.334 34.333 23.001 48s21 24.5 34 32.5s26.5 12 40.5 12c20.667 0 40.167 -2.83301 58.5 -8.5
s34.166 -13.334 47.499 -23.001s23.833 -21.167 31.5 -34.5s11.5 -27.333 11.5 -42c0 -20 -2.83301 -39 -8.5 -57s-13.167 -34 -22.5 -48s-20.5 -25 -33.5 -33s-26.5 -12 -40.5 -12c-21.333 0 -41 2.83301 -59 8.5s-33.833 13.5 -47.5 23.5s-24.334 21.5 -32.001 34.5
s-11.5 26.5 -11.5 40.5zM501.001 1577c0 20.667 2.83301 40.168 8.5 58.501s13.167 34.333 22.5 48s20.5 24.5 33.5 32.5s26.5 12 40.5 12c20.667 0 40.167 -2.83301 58.5 -8.5s34.333 -13.334 48 -23.001s24.334 -21.167 32.001 -34.5s11.5 -27.333 11.5 -42
c0 -20 -2.83301 -39 -8.5 -57s-13.334 -34 -23.001 -48s-21 -25 -34 -33s-26.833 -12 -41.5 -12c-21.333 0 -41 2.83301 -59 8.5s-33.5 13.5 -46.5 23.5s-23.333 21.5 -31 34.5s-11.5 26.5 -11.5 40.5z" />
    <glyph glyph-name="Eth" unicode="&#xd0;" horiz-adv-x="1428" 
d="M50 778h163.001v423l-143 34l20 118h618c211.333 0 370.833 -50.333 478.5 -151s161.5 -246.334 161.5 -437.001v-78c0 -211.333 -56.833 -378.666 -170.5 -501.999s-266.834 -185 -459.501 -185h-628l-20 118l143 34v457h-163v169zM513.001 1204v-425.999h240v-169h-240
v-460h161c39.333 0 80.333 2.66699 123 8s81 12.333 115 21c34.667 48 66 112.667 94 194s42 164.666 42 249.999v94c0 165.333 -33.333 288 -100 368s-169 120 -307 120h-128z" />
    <glyph glyph-name="Ntilde" unicode="&#xd1;" horiz-adv-x="1579" 
d="M211 1201l-143 34l20 118h520l592 -1101h16v949l-144 34l20 118h447l20 -118l-142 -34v-1201h-399l-591 1100h-16v-948l162 -34l-20 -118h-465l-20 118l143 34v1049zM356 1523c0 84.667 22.334 148.166 67.001 190.499s105.667 63.5 183 63.5
c44 0 88.333 -6.83301 133 -20.5s87.5 -28.834 128.5 -45.501l113 -45.5c34.333 -13.667 63.166 -20.5 86.499 -20.5c28.667 0 51.334 9.83301 68.001 29.5s25 49.834 25 90.501l137 10v-72c0 -79.333 -20.5 -141.5 -61.5 -186.5s-99.833 -67.5 -176.5 -67.5
c-38.667 0 -81 6.83301 -127 20.5s-91.167 28.834 -135.5 45.501l-123.5 45.5c-38 13.667 -68.333 20.5 -91 20.5c-15.333 0 -28.833 -1.33301 -40.5 -4s-21.834 -7.66699 -30.501 -15s-15.167 -17.333 -19.5 -30s-6.5 -29 -6.5 -49l-129 -10v50z" />
    <glyph glyph-name="Ograve" unicode="&#xd2;" horiz-adv-x="1407" 
d="M695 -22c-202 0 -354.001 45.667 -456.001 137s-153 228 -153 410v79c0 262.667 55.333 456.834 166 582.501s271.334 188.5 482.001 188.5c201.333 0 353.833 -45.667 457.5 -137s155.5 -228.333 155.5 -411v-78c0 -256.667 -54.333 -449.334 -163 -578.001
s-271.667 -193 -489 -193zM1047 783c0 144.667 -29.499 254.666 -88.499 329.999s-146.167 113 -261.5 113c-50 0 -97.5 -6.66699 -142.5 -20s-81.5 -29.333 -109.5 -48c-12 -42.667 -24.833 -107 -38.5 -193s-20.5 -173.333 -20.5 -262v-133
c0 -139.333 32.5 -248 97.5 -326s149.5 -117 253.5 -117c53.333 0 103.166 7.33301 149.499 22s80.5 30.334 102.5 47.001c14 50 27.167 117.833 39.5 203.5s18.5 169.167 18.5 250.5v133zM864 1471l-165 -11l-395 248v66l282 10l278 -281v-32z" />
    <glyph glyph-name="Oacute" unicode="&#xd3;" horiz-adv-x="1407" 
d="M695 -22c-202 0 -354.001 45.667 -456.001 137s-153 228 -153 410v79c0 262.667 55.333 456.834 166 582.501s271.334 188.5 482.001 188.5c201.333 0 353.833 -45.667 457.5 -137s155.5 -228.333 155.5 -411v-78c0 -256.667 -54.333 -449.334 -163 -578.001
s-271.667 -193 -489 -193zM1047 783c0 144.667 -29.499 254.666 -88.499 329.999s-146.167 113 -261.5 113c-50 0 -97.5 -6.66699 -142.5 -20s-81.5 -29.333 -109.5 -48c-12 -42.667 -24.833 -107 -38.5 -193s-20.5 -173.333 -20.5 -262v-133
c0 -139.333 32.5 -248 97.5 -326s149.5 -117 253.5 -117c53.333 0 103.166 7.33301 149.499 22s80.5 30.334 102.5 47.001c14 50 27.167 117.833 39.5 203.5s18.5 169.167 18.5 250.5v133zM547 1503l278 281l282 -10v-66l-395 -248l-165 11v32z" />
    <glyph glyph-name="Ocircumflex" unicode="&#xd4;" horiz-adv-x="1407" 
d="M695 -22c-202 0 -354.001 45.667 -456.001 137s-153 228 -153 410v79c0 262.667 55.333 456.834 166 582.501s271.334 188.5 482.001 188.5c201.333 0 353.833 -45.667 457.5 -137s155.5 -228.333 155.5 -411v-78c0 -256.667 -54.333 -449.334 -163 -578.001
s-271.667 -193 -489 -193zM1047 783c0 144.667 -29.499 254.666 -88.499 329.999s-146.167 113 -261.5 113c-50 0 -97.5 -6.66699 -142.5 -20s-81.5 -29.333 -109.5 -48c-12 -42.667 -24.833 -107 -38.5 -193s-20.5 -173.333 -20.5 -262v-133
c0 -139.333 32.5 -248 97.5 -326s149.5 -117 253.5 -117c53.333 0 103.166 7.33301 149.499 22s80.5 30.334 102.5 47.001c14 50 27.167 117.833 39.5 203.5s18.5 169.167 18.5 250.5v133zM1083 1470l-175 -10l-213 171l-206 -171l-145 10v32l263 292l223 -10l253 -282v-32z
" />
    <glyph glyph-name="Otilde" unicode="&#xd5;" horiz-adv-x="1407" 
d="M695 -22c-202 0 -354.001 45.667 -456.001 137s-153 228 -153 410v79c0 262.667 55.333 456.834 166 582.501s271.334 188.5 482.001 188.5c201.333 0 353.833 -45.667 457.5 -137s155.5 -228.333 155.5 -411v-78c0 -256.667 -54.333 -449.334 -163 -578.001
s-271.667 -193 -489 -193zM1047 783c0 144.667 -29.499 254.666 -88.499 329.999s-146.167 113 -261.5 113c-50 0 -97.5 -6.66699 -142.5 -20s-81.5 -29.333 -109.5 -48c-12 -42.667 -24.833 -107 -38.5 -193s-20.5 -173.333 -20.5 -262v-133
c0 -139.333 32.5 -248 97.5 -326s149.5 -117 253.5 -117c53.333 0 103.166 7.33301 149.499 22s80.5 30.334 102.5 47.001c14 50 27.167 117.833 39.5 203.5s18.5 169.167 18.5 250.5v133zM234 1523c0 84.667 22.334 148.166 67.001 190.499s105.667 63.5 183 63.5
c44 0 88.333 -6.83301 133 -20.5s87.5 -28.834 128.5 -45.501l113 -45.5c34.333 -13.667 63.166 -20.5 86.499 -20.5c28.667 0 51.334 9.83301 68.001 29.5s25 49.834 25 90.501l137 10v-72c0 -79.333 -20.5 -141.5 -61.5 -186.5s-99.833 -67.5 -176.5 -67.5
c-38.667 0 -81 6.83301 -127 20.5s-91.167 28.834 -135.5 45.501l-123.5 45.5c-38 13.667 -68.333 20.5 -91 20.5c-15.333 0 -28.833 -1.33301 -40.5 -4s-21.834 -7.66699 -30.501 -15s-15.167 -17.333 -19.5 -30s-6.5 -29 -6.5 -49l-129 -10v50z" />
    <glyph glyph-name="Odieresis" unicode="&#xd6;" horiz-adv-x="1407" 
d="M695 -22c-202 0 -354.001 45.667 -456.001 137s-153 228 -153 410v79c0 262.667 55.333 456.834 166 582.501s271.334 188.5 482.001 188.5c201.333 0 353.833 -45.667 457.5 -137s155.5 -228.333 155.5 -411v-78c0 -256.667 -54.333 -449.334 -163 -578.001
s-271.667 -193 -489 -193zM1047 783c0 144.667 -29.499 254.666 -88.499 329.999s-146.167 113 -261.5 113c-50 0 -97.5 -6.66699 -142.5 -20s-81.5 -29.333 -109.5 -48c-12 -42.667 -24.833 -107 -38.5 -193s-20.5 -173.333 -20.5 -262v-133
c0 -139.333 32.5 -248 97.5 -326s149.5 -117 253.5 -117c53.333 0 103.166 7.33301 149.499 22s80.5 30.334 102.5 47.001c14 50 27.167 117.833 39.5 203.5s18.5 169.167 18.5 250.5v133zM310 1577c0 20.667 2.83398 40.168 8.50098 58.501s13.334 34.333 23.001 48
s21 24.5 34 32.5s26.5 12 40.5 12c20.667 0 40.167 -2.83301 58.5 -8.5s34.166 -13.334 47.499 -23.001s23.833 -21.167 31.5 -34.5s11.5 -27.333 11.5 -42c0 -20 -2.83301 -39 -8.5 -57s-13.167 -34 -22.5 -48s-20.5 -25 -33.5 -33s-26.5 -12 -40.5 -12
c-21.333 0 -41 2.83301 -59 8.5s-33.833 13.5 -47.5 23.5s-24.334 21.5 -32.001 34.5s-11.5 26.5 -11.5 40.5zM852.001 1577c0 20.667 2.83301 40.168 8.5 58.501s13.167 34.333 22.5 48s20.5 24.5 33.5 32.5s26.5 12 40.5 12c20.667 0 40.167 -2.83301 58.5 -8.5
s34.333 -13.334 48 -23.001s24.334 -21.167 32.001 -34.5s11.5 -27.333 11.5 -42c0 -20 -2.83301 -39 -8.5 -57s-13.334 -34 -23.001 -48s-21 -25 -34 -33s-26.833 -12 -41.5 -12c-21.333 0 -41 2.83301 -59 8.5s-33.5 13.5 -46.5 23.5s-23.333 21.5 -31 34.5
s-11.5 26.5 -11.5 40.5z" />
    <glyph glyph-name="multiply" unicode="&#xd7;" horiz-adv-x="1109" 
d="M314 978l240 -241l241 241l144 -144l-241 -241l241 -240l-144 -144l-241 240l-240 -240l-144 144l240 240l-240 241z" />
    <glyph glyph-name="Oslash" unicode="&#xd8;" horiz-adv-x="1407" 
d="M695 -22c-31.333 0 -60.9971 0.999023 -88.9971 2.99902l-66 -211h-195v20l71 227c-110 36 -192.5 96.167 -247.5 180.5s-82.5 193.5 -82.5 327.5v79c0 125.333 13 236 39 332s65.667 176.5 119 241.5s120.666 114.167 201.999 147.5s177.333 50 288 50
c18.667 0 36.667 -0.5 54 -1.5s34.666 -2.16699 51.999 -3.5l53 170h195v-20l-59 -189c105.333 -37.333 184.666 -97.666 237.999 -180.999s80 -191 80 -323v-78c0 -126 -13.167 -237 -39.5 -333s-66.333 -176.5 -120 -241.5s-121.5 -114 -203.5 -147
s-178.333 -49.5 -289 -49.5zM697.003 1226c-40 0 -75.501 -3.49805 -106.501 -10.498s-57.167 -14.833 -78.5 -23.5c-25.333 -10 -47.666 -21.333 -66.999 -34c-11.333 -41.333 -21.333 -86 -30 -134c-7.33301 -42 -14 -90.333 -20 -145s-9 -113.334 -9 -176.001v-133
c0 -74.667 9 -139.334 27 -194.001s42.333 -100 73 -136l305 976c-15.333 3.33301 -30.833 5.83301 -46.5 7.5s-31.5 2.5 -47.5 2.5zM1047 783.001c0 76.667 -7.66992 141.833 -23.0029 195.5s-36.666 97.834 -63.999 132.501l-306 -975c26.667 -6 54.334 -9 83.001 -9
c39.333 0 74.333 3.5 105 10.5s57 14.833 79 23.5c25.333 10 48 21.667 68 35c10.667 42 20.334 87.333 29.001 136c7.33301 42 14 90.167 20 144.5s9 112.166 9 173.499v133z" />
    <glyph glyph-name="Ugrave" unicode="&#xd9;" horiz-adv-x="1400" 
d="M444 546c0 -138.667 26.3301 -243.168 78.9971 -313.501s127.334 -105.5 224.001 -105.5c48.667 0 94.334 5.5 137.001 16.5s76.334 24.167 101.001 39.5c22 41.333 40.5 91.833 55.5 151.5s22.5 121.834 22.5 186.501v680l-143 34l20 118h436l20 -118l-142 -34v-657
c0 -190.667 -45.333 -332.667 -136 -426s-230.667 -140 -420 -140c-191.333 0 -331.5 43 -420.5 129s-133.5 214 -133.5 384v710l-144 34l20 118h546l20 -118l-142 -34v-655zM910.997 1471l-165 -11l-395 248v66l282 10l278 -281v-32z" />
    <glyph glyph-name="Uacute" unicode="&#xda;" horiz-adv-x="1400" 
d="M444 546c0 -138.667 26.3301 -243.168 78.9971 -313.501s127.334 -105.5 224.001 -105.5c48.667 0 94.334 5.5 137.001 16.5s76.334 24.167 101.001 39.5c22 41.333 40.5 91.833 55.5 151.5s22.5 121.834 22.5 186.501v680l-143 34l20 118h436l20 -118l-142 -34v-657
c0 -190.667 -45.333 -332.667 -136 -426s-230.667 -140 -420 -140c-191.333 0 -331.5 43 -420.5 129s-133.5 214 -133.5 384v710l-144 34l20 118h546l20 -118l-142 -34v-655zM593.997 1503l278 281l282 -10v-66l-395 -248l-165 11v32z" />
    <glyph glyph-name="Ucircumflex" unicode="&#xdb;" horiz-adv-x="1400" 
d="M444 546c0 -138.667 26.3301 -243.168 78.9971 -313.501s127.334 -105.5 224.001 -105.5c48.667 0 94.334 5.5 137.001 16.5s76.334 24.167 101.001 39.5c22 41.333 40.5 91.833 55.5 151.5s22.5 121.834 22.5 186.501v680l-143 34l20 118h436l20 -118l-142 -34v-657
c0 -190.667 -45.333 -332.667 -136 -426s-230.667 -140 -420 -140c-191.333 0 -331.5 43 -420.5 129s-133.5 214 -133.5 384v710l-144 34l20 118h546l20 -118l-142 -34v-655zM1130 1470l-175 -10l-213 171l-206 -171l-145 10v32l263 292l223 -10l253 -282v-32z" />
    <glyph glyph-name="Udieresis" unicode="&#xdc;" horiz-adv-x="1400" 
d="M444 546c0 -138.667 26.3301 -243.168 78.9971 -313.501s127.334 -105.5 224.001 -105.5c48.667 0 94.334 5.5 137.001 16.5s76.334 24.167 101.001 39.5c22 41.333 40.5 91.833 55.5 151.5s22.5 121.834 22.5 186.501v680l-143 34l20 118h436l20 -118l-142 -34v-657
c0 -190.667 -45.333 -332.667 -136 -426s-230.667 -140 -420 -140c-191.333 0 -331.5 43 -420.5 129s-133.5 214 -133.5 384v710l-144 34l20 118h546l20 -118l-142 -34v-655zM356.997 1577c0 20.667 2.83398 40.168 8.50098 58.501s13.334 34.333 23.001 48s21 24.5 34 32.5
s26.5 12 40.5 12c20.667 0 40.167 -2.83301 58.5 -8.5s34.166 -13.334 47.499 -23.001s23.833 -21.167 31.5 -34.5s11.5 -27.333 11.5 -42c0 -20 -2.83301 -39 -8.5 -57s-13.167 -34 -22.5 -48s-20.5 -25 -33.5 -33s-26.5 -12 -40.5 -12c-21.333 0 -41 2.83301 -59 8.5
s-33.833 13.5 -47.5 23.5s-24.334 21.5 -32.001 34.5s-11.5 26.5 -11.5 40.5zM898.998 1577c0 20.667 2.83301 40.168 8.5 58.501s13.167 34.333 22.5 48s20.5 24.5 33.5 32.5s26.5 12 40.5 12c20.667 0 40.167 -2.83301 58.5 -8.5s34.333 -13.334 48 -23.001
s24.334 -21.167 32.001 -34.5s11.5 -27.333 11.5 -42c0 -20 -2.83301 -39 -8.5 -57s-13.334 -34 -23.001 -48s-21 -25 -34 -33s-26.833 -12 -41.5 -12c-21.333 0 -41 2.83301 -59 8.5s-33.5 13.5 -46.5 23.5s-23.333 21.5 -31 34.5s-11.5 26.5 -11.5 40.5z" />
    <glyph glyph-name="Yacute" unicode="&#xdd;" horiz-adv-x="1172" 
d="M452 586l-389 617l-117 31l20 119h520l20 -119l-142 -27l277 -444l264 444l-135 27l20 119h422l20 -119l-113 -31l-367 -616v-435l142 -34l-20 -118h-545l-20 118l143 34v434zM478 1503l278 281l282 -10v-66l-395 -248l-165 11v32z" />
    <glyph glyph-name="Thorn" unicode="&#xde;" horiz-adv-x="1098" 
d="M170 1201l-163 33.998l20 118h585l20 -118l-162 -34v-116h117c76.667 0 145.5 -6.83301 206.5 -20.5s112.833 -34.667 155.5 -63s75.167 -64.166 97.5 -107.499s33.5 -94.666 33.5 -153.999c0 -67.333 -12.833 -127 -38.5 -179s-60.167 -95.667 -103.5 -131
s-93.5 -62 -150.5 -80s-116.833 -27 -179.5 -27h-138v-171l222 -34l-20 -118h-645l-20 118l163 34v1049zM470 935.998v-464.001h75c30 0 57.333 1.5 82 4.5s46 6.16699 64 9.5c21.333 4 40.333 8.66699 57 14c5.33301 19.333 10 40 14 62c3.33301 18.667 6.5 40 9.5 64
s4.5 48.667 4.5 74c0 34.667 -4.5 66.5 -13.5 95.5s-23.833 53.833 -44.5 74.5s-47.667 36.834 -81 48.501s-74 17.5 -122 17.5h-45z" />
    <glyph glyph-name="germandbls" unicode="&#xdf;" horiz-adv-x="1289" 
d="M189 933l-173.004 34.001l20 118h153v64c0 63.333 10 120.5 30 171.5s50.5 94.333 91.5 130s92.833 63.167 155.5 82.5s137 29 223 29c58.667 0 114.334 -5.66699 167.001 -17s98.834 -29.666 138.501 -54.999s71.167 -58.5 94.5 -99.5s35 -91.167 35 -150.5
c0 -44.667 -7 -86.334 -21 -125.001s-32.833 -74.5 -56.5 -107.5s-50.834 -63.5 -81.501 -91.5s-63 -53.333 -97 -76l59 -33l60 -38c22.667 -14.667 45.667 -31.334 69 -50.001c36 -29.333 68.167 -58.5 96.5 -87.5s52.333 -59.333 72 -91s34.5 -65.334 44.5 -101.001
s15 -74.834 15 -117.501c0 -54.667 -10.333 -103.334 -31 -146.001s-49.667 -78.667 -87 -108s-81.833 -51.666 -133.5 -66.999s-108.167 -23 -169.5 -23c-47.333 0 -89.666 3.5 -126.999 10.5s-69 15.167 -95 24.5c-30.667 10 -57.667 21.667 -81 35v251l151 10l46 -168
c7.33301 -4.66699 16.333 -8.66699 27 -12c8.66699 -3.33301 19.334 -6 32.001 -8s27.334 -3 44.001 -3c15.333 0 29 0.833008 41 2.5s22.333 3.83398 31 6.50098c10 2.66699 19 6 27 10c6 10.667 11.667 22.334 17 35.001c4.66699 11.333 8.83398 24.333 12.501 39
s5.5 30.667 5.5 48c0 26 -1.83301 50.333 -5.5 73s-11 45.667 -22 69s-26.333 47.5 -46 72.5s-45.834 52.5 -78.501 82.5c-24 22 -48.5 41.833 -73.5 59.5l-68.5 46.5c-24 14.667 -47 28 -69 40v116c34 33.333 63.667 66 89 98s46.5 64 63.5 96s29.667 64.667 38 98
s12.5 68.333 12.5 105c0 72 -15 124.5 -45 157.5s-73.333 49.5 -130 49.5c-26 0 -48.167 -1.66699 -66.5 -5s-33.166 -6.66602 -44.499 -9.99902c-13.333 -4 -24.333 -8.66699 -33 -14c-6.66699 -20 -12.667 -43.333 -18 -70
c-4.66699 -22.667 -8.83398 -49.834 -12.501 -81.501s-5.5 -67.167 -5.5 -106.5v-1135h-433l-20 118l163 34v781z" />
    <glyph glyph-name="agrave" unicode="&#xe0;" horiz-adv-x="1188" 
d="M1001 152l142.999 -33.999l-20 -118l-335 -22l-57 158c-41.333 -47.333 -93.166 -85.5 -155.499 -114.5s-129.166 -43.5 -200.499 -43.5c-98.667 0 -174.334 22.167 -227.001 66.5s-79 108.5 -79 192.5c0 126.667 53.833 221.667 161.5 285s267.5 95 479.5 95v93
c0 88 -15.167 152.833 -45.5 194.5s-79.5 62.5 -147.5 62.5c-28 0 -54.167 -1.5 -78.5 -4.5s-45.5 -6.5 -63.5 -10.5l-60 -212l-168 10v303c56.667 16 120.5 29 191.5 39s139.833 15 206.5 15c154.667 0 269.167 -30.833 343.5 -92.5s111.5 -154.834 111.5 -279.501v-583z
M710.999 477.001c-66.667 0 -128.833 -5.33301 -186.5 -16s-102.5 -24.667 -134.5 -42c-8 -16.667 -15 -37.5 -21 -62.5s-9 -52.167 -9 -81.5c0 -50.667 10.333 -89.5 31 -116.5s50.334 -40.5 89.001 -40.5c42 0 84.167 12.833 126.5 38.5s77.166 55.167 104.499 88.5v232z
M685 1275l-168 -10l-320 329v66l285 10l203 -363v-32z" />
    <glyph glyph-name="aacute" unicode="&#xe1;" horiz-adv-x="1188" 
d="M1001 152l142.999 -33.999l-20 -118l-335 -22l-57 158c-41.333 -47.333 -93.166 -85.5 -155.499 -114.5s-129.166 -43.5 -200.499 -43.5c-98.667 0 -174.334 22.167 -227.001 66.5s-79 108.5 -79 192.5c0 126.667 53.833 221.667 161.5 285s267.5 95 479.5 95v93
c0 88 -15.167 152.833 -45.5 194.5s-79.5 62.5 -147.5 62.5c-28 0 -54.167 -1.5 -78.5 -4.5s-45.5 -6.5 -63.5 -10.5l-60 -212l-168 10v303c56.667 16 120.5 29 191.5 39s139.833 15 206.5 15c154.667 0 269.167 -30.833 343.5 -92.5s111.5 -154.834 111.5 -279.501v-583z
M710.999 477.001c-66.667 0 -128.833 -5.33301 -186.5 -16s-102.5 -24.667 -134.5 -42c-8 -16.667 -15 -37.5 -21 -62.5s-9 -52.167 -9 -81.5c0 -50.667 10.333 -89.5 31 -116.5s50.334 -40.5 89.001 -40.5c42 0 84.167 12.833 126.5 38.5s77.166 55.167 104.499 88.5v232z
M440 1307l183 363l272 -10v-66l-300 -329l-155 10v32z" />
    <glyph glyph-name="acircumflex" unicode="&#xe2;" horiz-adv-x="1188" 
d="M1001 152l142.999 -33.999l-20 -118l-335 -22l-57 158c-41.333 -47.333 -93.166 -85.5 -155.499 -114.5s-129.166 -43.5 -200.499 -43.5c-98.667 0 -174.334 22.167 -227.001 66.5s-79 108.5 -79 192.5c0 126.667 53.833 221.667 161.5 285s267.5 95 479.5 95v93
c0 88 -15.167 152.833 -45.5 194.5s-79.5 62.5 -147.5 62.5c-28 0 -54.167 -1.5 -78.5 -4.5s-45.5 -6.5 -63.5 -10.5l-60 -212l-168 10v303c56.667 16 120.5 29 191.5 39s139.833 15 206.5 15c154.667 0 269.167 -30.833 343.5 -92.5s111.5 -154.834 111.5 -279.501v-583z
M710.999 477.001c-66.667 0 -128.833 -5.33301 -186.5 -16s-102.5 -24.667 -134.5 -42c-8 -16.667 -15 -37.5 -21 -62.5s-9 -52.167 -9 -81.5c0 -50.667 10.333 -89.5 31 -116.5s50.334 -40.5 89.001 -40.5c42 0 84.167 12.833 126.5 38.5s77.166 55.167 104.499 88.5v232z
M906 1275l-175 -10l-188 219l-181 -219l-145 10v32l223 373l243 -10l223 -363v-32z" />
    <glyph glyph-name="atilde" unicode="&#xe3;" horiz-adv-x="1188" 
d="M1001 152l142.999 -33.999l-20 -118l-335 -22l-57 158c-41.333 -47.333 -93.166 -85.5 -155.499 -114.5s-129.166 -43.5 -200.499 -43.5c-98.667 0 -174.334 22.167 -227.001 66.5s-79 108.5 -79 192.5c0 126.667 53.833 221.667 161.5 285s267.5 95 479.5 95v93
c0 88 -15.167 152.833 -45.5 194.5s-79.5 62.5 -147.5 62.5c-28 0 -54.167 -1.5 -78.5 -4.5s-45.5 -6.5 -63.5 -10.5l-60 -212l-168 10v303c56.667 16 120.5 29 191.5 39s139.833 15 206.5 15c154.667 0 269.167 -30.833 343.5 -92.5s111.5 -154.834 111.5 -279.501v-583z
M710.999 477.001c-66.667 0 -128.833 -5.33301 -186.5 -16s-102.5 -24.667 -134.5 -42c-8 -16.667 -15 -37.5 -21 -62.5s-9 -52.167 -9 -81.5c0 -50.667 10.333 -89.5 31 -116.5s50.334 -40.5 89.001 -40.5c42 0 84.167 12.833 126.5 38.5s77.166 55.167 104.499 88.5v232z
M134 1307c0 84.667 20.499 148.166 61.499 190.499s97.167 63.5 168.5 63.5c38 0 76.5 -6.83301 115.5 -20.5s76.167 -28.834 111.5 -45.501l98.5 -45.5c30.333 -13.667 55.5 -20.5 75.5 -20.5c22.667 0 40.5 9.83301 53.5 29.5s19.5 49.834 19.5 90.501l137 10v-72
c0 -79.333 -18.667 -141.5 -56 -186.5s-91.333 -67.5 -162 -67.5c-34 0 -71.167 6.83301 -111.5 20.5s-79.833 28.834 -118.5 45.501l-108 45.5c-33.333 13.667 -59.666 20.5 -78.999 20.5c-24 0 -42.833 -6.33301 -56.5 -19s-20.5 -39 -20.5 -79l-129 -10v50z" />
    <glyph glyph-name="adieresis" unicode="&#xe4;" horiz-adv-x="1188" 
d="M1001 152l142.999 -33.999l-20 -118l-335 -22l-57 158c-41.333 -47.333 -93.166 -85.5 -155.499 -114.5s-129.166 -43.5 -200.499 -43.5c-98.667 0 -174.334 22.167 -227.001 66.5s-79 108.5 -79 192.5c0 126.667 53.833 221.667 161.5 285s267.5 95 479.5 95v93
c0 88 -15.167 152.833 -45.5 194.5s-79.5 62.5 -147.5 62.5c-28 0 -54.167 -1.5 -78.5 -4.5s-45.5 -6.5 -63.5 -10.5l-60 -212l-168 10v303c56.667 16 120.5 29 191.5 39s139.833 15 206.5 15c154.667 0 269.167 -30.833 343.5 -92.5s111.5 -154.834 111.5 -279.501v-583z
M710.999 477.001c-66.667 0 -128.833 -5.33301 -186.5 -16s-102.5 -24.667 -134.5 -42c-8 -16.667 -15 -37.5 -21 -62.5s-9 -52.167 -9 -81.5c0 -50.667 10.333 -89.5 31 -116.5s50.334 -40.5 89.001 -40.5c42 0 84.167 12.833 126.5 38.5s77.166 55.167 104.499 88.5v232z
M181 1389c0 20.667 2.83398 40.167 8.50098 58.5s13.334 34.333 23.001 48s21 24.5 34 32.5s26.5 12 40.5 12c20.667 0 40.167 -2.83301 58.5 -8.5s34.166 -13.5 47.499 -23.5s23.833 -21.5 31.5 -34.5s11.5 -26.833 11.5 -41.5c0 -20 -2.83301 -39 -8.5 -57
s-13.167 -34 -22.5 -48s-20.5 -25 -33.5 -33s-26.5 -12 -40.5 -12c-21.333 0 -41 2.83301 -59 8.5s-33.833 13.5 -47.5 23.5s-24.334 21.5 -32.001 34.5s-11.5 26.5 -11.5 40.5zM661.001 1389c0 20.667 2.83301 40.167 8.5 58.5s13.167 34.333 22.5 48s20.5 24.5 33.5 32.5
s26.5 12 40.5 12c20.667 0 40.167 -2.83301 58.5 -8.5s34.333 -13.5 48 -23.5s24.334 -21.5 32.001 -34.5s11.5 -26.833 11.5 -41.5c0 -20 -2.83301 -39 -8.5 -57s-13.334 -34 -23.001 -48s-21 -25 -34 -33s-26.833 -12 -41.5 -12c-21.333 0 -41 2.83301 -59 8.5
s-33.5 13.5 -46.5 23.5s-23.333 21.5 -31 34.5s-11.5 26.5 -11.5 40.5z" />
    <glyph glyph-name="aring" unicode="&#xe5;" horiz-adv-x="1188" 
d="M1001 152l142.999 -33.999l-20 -118l-335 -22l-57 158c-41.333 -47.333 -93.166 -85.5 -155.499 -114.5s-129.166 -43.5 -200.499 -43.5c-98.667 0 -174.334 22.167 -227.001 66.5s-79 108.5 -79 192.5c0 126.667 53.833 221.667 161.5 285s267.5 95 479.5 95v93
c0 88 -15.167 152.833 -45.5 194.5s-79.5 62.5 -147.5 62.5c-28 0 -54.167 -1.5 -78.5 -4.5s-45.5 -6.5 -63.5 -10.5l-60 -212l-168 10v303c56.667 16 120.5 29 191.5 39s139.833 15 206.5 15c154.667 0 269.167 -30.833 343.5 -92.5s111.5 -154.834 111.5 -279.501v-583z
M710.999 477.001c-66.667 0 -128.833 -5.33301 -186.5 -16s-102.5 -24.667 -134.5 -42c-8 -16.667 -15 -37.5 -21 -62.5s-9 -52.167 -9 -81.5c0 -50.667 10.333 -89.5 31 -116.5s50.334 -40.5 89.001 -40.5c42 0 84.167 12.833 126.5 38.5s77.166 55.167 104.499 88.5v232z
M333 1436c0 40.667 6.50195 75.999 19.502 105.999s30.333 54.833 52 74.5s47 34.334 76 44.001s59.5 14.5 91.5 14.5c29.333 0 57.166 -3.33301 83.499 -10s49.5 -17 69.5 -31s35.833 -32.167 47.5 -54.5s17.5 -48.833 17.5 -79.5c0 -42.667 -6.16699 -79.167 -18.5 -109.5
s-29.166 -55.166 -50.499 -74.499s-46.5 -33.5 -75.5 -42.5s-60.167 -13.5 -93.5 -13.5c-30.667 0 -59.334 3.33301 -86.001 10s-49.834 17.167 -69.501 31.5s-35.167 32.666 -46.5 54.999s-17 48.833 -17 79.5zM488.002 1468c0 -37.333 7.33496 -65.834 22.002 -85.501
s33.667 -29.5 57 -29.5c9.33301 0 17.5 0.333008 24.5 1s13.167 1.66699 18.5 3c6 1.33301 11.667 3 17 5c1.33301 8 2.66602 17.667 3.99902 29c1.33301 9.33301 2.5 20.5 3.5 33.5s1.5 27.5 1.5 43.5c0 37.333 -7.33301 65.833 -22 85.5s-33.667 29.5 -57 29.5
c-7.33301 0 -14 -0.5 -20 -1.5s-11.333 -2.16699 -16 -3.5c-5.33301 -1.33301 -10 -2.66602 -14 -3.99902c-4 -7.33301 -7.33301 -16.333 -10 -27c-2.66699 -9.33301 -4.83398 -20.5 -6.50098 -33.5s-2.5 -28.167 -2.5 -45.5z" />
    <glyph glyph-name="ae" unicode="&#xe6;" horiz-adv-x="1685" 
d="M1001 493l-0.00390625 -46c0 -62 7.66699 -114 23 -156s36 -75.833 62 -101.5s56 -44 90 -55s69.667 -16.5 107 -16.5c36 0 71.833 3.33301 107.5 10s68.167 14 97.5 22c34 9.33301 66.667 20.333 98 33v-116c-33.333 -17.333 -70.666 -32.333 -111.999 -45
c-36 -11.333 -78.333 -21.5 -127 -30.5s-103 -13.5 -163 -13.5c-45.333 0 -88.166 3.5 -128.499 10.5s-78 17.833 -113 32.5s-66.5 33.5 -94.5 56.5s-52 50.167 -72 81.5c-11.333 -14 -28.666 -31.333 -51.999 -52s-52 -40.5 -86 -59.5s-72.667 -35.333 -116 -49
s-90.333 -20.5 -141 -20.5c-102 0 -179.333 22.167 -232 66.5s-79 108.5 -79 192.5c0 60 12 114.167 36 162.5s61.833 89.333 113.5 123s118 59.5 199 77.5s178.5 27 292.5 27v75c0 92 -16 159.167 -48 201.5s-80.333 63.5 -145 63.5c-20.667 0 -39.667 -0.833008 -57 -2.5
s-32.333 -3.5 -45 -5.5l-40 -7l-60 -212l-168 10v303c34.667 10 73 19 115 27c36 6.66699 78 12.834 126 18.501s100.333 8.5 157 8.5c78.667 0 148.167 -8.16699 208.5 -24.5s110.166 -43.5 149.499 -81.5c44 36 93 62.667 147 80s113 26 177 26c78 0 143.333 -10 196 -30
s94.834 -50.167 126.501 -90.5s54.334 -90.833 68.001 -151.5s20.5 -131.334 20.5 -212.001v-130h-638zM729.996 263c-12.667 44 -18.999 94.333 -18.999 151v73c-57.333 0 -106.166 -3 -146.499 -9s-73.5 -12.667 -99.5 -20c-30.667 -8.66699 -55.667 -18.334 -75 -29.001
c-6 -11.333 -11 -25 -15 -41c-4 -13.333 -7.5 -29.666 -10.5 -48.999s-4.5 -40.666 -4.5 -63.999c0 -28 3.33301 -52 10 -72s15.5 -36.333 26.5 -49s23.667 -21.834 38 -27.501s29.5 -8.5 45.5 -8.5c33.333 0 64.666 7 93.999 21s55.166 29.833 77.499 47.5
s40.5 34.167 54.5 49.5s22 24.333 24 27zM1051 927c-7.33301 -23.333 -14.334 -50.001 -21.001 -80.001c-5.33301 -25.333 -10.666 -56.166 -15.999 -92.499s-9 -76.833 -11 -121.5h346c0 58 -2.5 108 -7.5 150s-13.5 76.667 -25.5 104s-27.667 47.5 -47 60.5
s-43 19.5 -71 19.5c-24 0 -45.167 -2 -63.5 -6s-33.833 -8.66699 -46.5 -14c-14.667 -6 -27 -12.667 -37 -20z" />
    <glyph glyph-name="ccedilla" unicode="&#xe7;" horiz-adv-x="992" 
d="M62 492c0 201.333 47.1719 354.165 141.505 458.498s224.5 156.5 390.5 156.5c54 0 110 -5.5 168 -16.5s111.667 -26.5 161 -46.5l19 -254l-170 -23l-73 190c-22 4 -43.5 6.66699 -64.5 8s-40.833 2 -59.5 2c-31.333 0 -62.5 -3.83301 -93.5 -11.5
s-57.5 -17.167 -79.5 -28.5c-13.333 -44.667 -25 -100.667 -35 -168s-15 -136.333 -15 -207v-109c0 -106.667 24.5 -187.5 73.5 -242.5s120.167 -82.5 213.5 -82.5c42.667 0 92 7.66699 148 23s105 32 147 50v-116c-50.667 -29.333 -110 -53 -178 -71
c-48 -12 -96.667 -19.667 -146 -23l-29 -76c31.333 -6 59.666 -13.667 84.999 -23s46.833 -21.166 64.5 -35.499s31.334 -31.333 41.001 -51s14.5 -43.167 14.5 -70.5c0 -26.667 -5.83301 -51.167 -17.5 -73.5s-28.334 -41.5 -50.001 -57.5s-47.834 -28.5 -78.501 -37.5
s-64.667 -13.5 -102 -13.5c-30.667 0 -58.667 2.33301 -84 7s-47.333 10 -66 16c-22 7.33301 -42 15.333 -60 24v113c18.667 -7.33301 38.334 -14 59.001 -20c17.333 -5.33301 36.666 -10 57.999 -14s42.666 -6 63.999 -6c24.667 0 44 1 58 3l21 4
c0.666992 4.66699 1.66699 9.66699 3 15c1.33301 4.66699 2.33301 9.5 3 14.5s1 10.167 1 15.5c0 11.333 -2.33301 21.5 -7 30.5s-12.667 17 -24 24s-26.333 13.333 -45 19s-42.334 10.834 -71.001 15.501l-46 72l40 109c-102.667 13.333 -186.334 47.333 -251.001 102
c-86 72.667 -129 176.667 -129 312v93z" />
    <glyph glyph-name="egrave" unicode="&#xe8;" horiz-adv-x="1078" 
d="M354 513v-66c0 -106.667 25.833 -188.167 77.5 -244.5s129.834 -84.5 234.501 -84.5c45.333 0 98 6.66699 158 20s111.667 28.333 155 45v-116c-48.667 -24.667 -111.334 -45.667 -188.001 -63s-154.667 -26 -234 -26c-158 0 -279.667 37.333 -365 112
s-128 182.667 -128 324v83c0 192 48 341.667 144 449s229.333 161 400 161c152 0 260.667 -36.167 326 -108.5s98 -190.833 98 -355.5v-130h-678zM402 928c-10.667 -38.667 -20.167 -82.666 -28.5 -131.999s-13.833 -97 -16.5 -143h385c0 116.667 -13.333 198.167 -40 244.5
s-72 69.5 -136 69.5c-28 0 -56.167 -3.33301 -84.5 -10s-54.833 -16.334 -79.5 -29.001zM731 1275l-168 -10l-320 329v66l285 10l203 -363v-32z" />
    <glyph glyph-name="eacute" unicode="&#xe9;" horiz-adv-x="1078" 
d="M354 513v-66c0 -106.667 25.833 -188.167 77.5 -244.5s129.834 -84.5 234.501 -84.5c45.333 0 98 6.66699 158 20s111.667 28.333 155 45v-116c-48.667 -24.667 -111.334 -45.667 -188.001 -63s-154.667 -26 -234 -26c-158 0 -279.667 37.333 -365 112
s-128 182.667 -128 324v83c0 192 48 341.667 144 449s229.333 161 400 161c152 0 260.667 -36.167 326 -108.5s98 -190.833 98 -355.5v-130h-678zM402 928c-10.667 -38.667 -20.167 -82.666 -28.5 -131.999s-13.833 -97 -16.5 -143h385c0 116.667 -13.333 198.167 -40 244.5
s-72 69.5 -136 69.5c-28 0 -56.167 -3.33301 -84.5 -10s-54.833 -16.334 -79.5 -29.001zM487 1307l183 363l272 -10v-66l-300 -329l-155 10v32z" />
    <glyph glyph-name="ecircumflex" unicode="&#xea;" horiz-adv-x="1078" 
d="M354 513v-66c0 -106.667 25.833 -188.167 77.5 -244.5s129.834 -84.5 234.501 -84.5c45.333 0 98 6.66699 158 20s111.667 28.333 155 45v-116c-48.667 -24.667 -111.334 -45.667 -188.001 -63s-154.667 -26 -234 -26c-158 0 -279.667 37.333 -365 112
s-128 182.667 -128 324v83c0 192 48 341.667 144 449s229.333 161 400 161c152 0 260.667 -36.167 326 -108.5s98 -190.833 98 -355.5v-130h-678zM402 928c-10.667 -38.667 -20.167 -82.666 -28.5 -131.999s-13.833 -97 -16.5 -143h385c0 116.667 -13.333 198.167 -40 244.5
s-72 69.5 -136 69.5c-28 0 -56.167 -3.33301 -84.5 -10s-54.833 -16.334 -79.5 -29.001zM953 1275l-175 -10l-188 219l-181 -219l-145 10v32l223 373l243 -10l223 -363v-32z" />
    <glyph glyph-name="edieresis" unicode="&#xeb;" horiz-adv-x="1078" 
d="M354 513v-66c0 -106.667 25.833 -188.167 77.5 -244.5s129.834 -84.5 234.501 -84.5c45.333 0 98 6.66699 158 20s111.667 28.333 155 45v-116c-48.667 -24.667 -111.334 -45.667 -188.001 -63s-154.667 -26 -234 -26c-158 0 -279.667 37.333 -365 112
s-128 182.667 -128 324v83c0 192 48 341.667 144 449s229.333 161 400 161c152 0 260.667 -36.167 326 -108.5s98 -190.833 98 -355.5v-130h-678zM402 928c-10.667 -38.667 -20.167 -82.666 -28.5 -131.999s-13.833 -97 -16.5 -143h385c0 116.667 -13.333 198.167 -40 244.5
s-72 69.5 -136 69.5c-28 0 -56.167 -3.33301 -84.5 -10s-54.833 -16.334 -79.5 -29.001zM228 1389c0 20.667 2.83398 40.167 8.50098 58.5s13.334 34.333 23.001 48s21 24.5 34 32.5s26.5 12 40.5 12c20.667 0 40.167 -2.83301 58.5 -8.5s34.166 -13.5 47.499 -23.5
s23.833 -21.5 31.5 -34.5s11.5 -26.833 11.5 -41.5c0 -20 -2.83301 -39 -8.5 -57s-13.167 -34 -22.5 -48s-20.5 -25 -33.5 -33s-26.5 -12 -40.5 -12c-21.333 0 -41 2.83301 -59 8.5s-33.833 13.5 -47.5 23.5s-24.334 21.5 -32.001 34.5s-11.5 26.5 -11.5 40.5zM708.001 1389
c0 20.667 2.83301 40.167 8.5 58.5s13.167 34.333 22.5 48s20.5 24.5 33.5 32.5s26.5 12 40.5 12c20.667 0 40.167 -2.83301 58.5 -8.5s34.333 -13.5 48 -23.5s24.334 -21.5 32.001 -34.5s11.5 -26.833 11.5 -41.5c0 -20 -2.83301 -39 -8.5 -57s-13.334 -34 -23.001 -48
s-21 -25 -34 -33s-26.833 -12 -41.5 -12c-21.333 0 -41 2.83301 -59 8.5s-33.5 13.5 -46.5 23.5s-23.333 21.5 -31 34.5s-11.5 26.5 -11.5 40.5z" />
    <glyph glyph-name="igrave" unicode="&#xec;" horiz-adv-x="696" 
d="M501 152l143 -34l-20 -118h-536l-20 118l143 34v781l-143 34l20 118l413 22v-955zM455 1275l-168 -10l-320 329v66l285 10l203 -363v-32z" />
    <glyph glyph-name="iacute" unicode="&#xed;" horiz-adv-x="696" 
d="M501 152l143 -34l-20 -118h-536l-20 118l143 34v781l-143 34l20 118l413 22v-955zM210 1307l183 363l272 -10v-66l-300 -329l-155 10v32z" />
    <glyph glyph-name="icircumflex" unicode="&#xee;" horiz-adv-x="696" 
d="M501 152l143 -34l-20 -118h-536l-20 118l143 34v781l-143 34l20 118l413 22v-955zM677 1275l-175 -10l-188 219l-181 -219l-145 10v32l223 373l243 -10l223 -363v-32z" />
    <glyph glyph-name="idieresis" unicode="&#xef;" horiz-adv-x="696" 
d="M501 152l143 -34l-20 -118h-536l-20 118l143 34v781l-143 34l20 118l413 22v-955zM-48 1389c0 20.667 2.83398 40.167 8.50098 58.5s13.334 34.333 23.001 48s21 24.5 34 32.5s26.5 12 40.5 12c20.667 0 40.167 -2.83301 58.5 -8.5s34.166 -13.5 47.499 -23.5
s23.833 -21.5 31.5 -34.5s11.5 -26.833 11.5 -41.5c0 -20 -2.83301 -39 -8.5 -57s-13.167 -34 -22.5 -48s-20.5 -25 -33.5 -33s-26.5 -12 -40.5 -12c-21.333 0 -41 2.83301 -59 8.5s-33.833 13.5 -47.5 23.5s-24.334 21.5 -32.001 34.5s-11.5 26.5 -11.5 40.5zM432.001 1389
c0 20.667 2.83301 40.167 8.5 58.5s13.167 34.333 22.5 48s20.5 24.5 33.5 32.5s26.5 12 40.5 12c20.667 0 40.167 -2.83301 58.5 -8.5s34.333 -13.5 48 -23.5s24.334 -21.5 32.001 -34.5s11.5 -26.833 11.5 -41.5c0 -20 -2.83301 -39 -8.5 -57s-13.334 -34 -23.001 -48
s-21 -25 -34 -33s-26.833 -12 -41.5 -12c-21.333 0 -41 2.83301 -59 8.5s-33.5 13.5 -46.5 23.5s-23.333 21.5 -31 34.5s-11.5 26.5 -11.5 40.5z" />
    <glyph glyph-name="eth" unicode="&#xf0;" horiz-adv-x="1168" 
d="M311 1277l201.001 94.9961c-62 52.667 -129.667 98.667 -203 138l159 52c70.667 -30.667 138 -69 202 -115l242 115l57 -119l-185 -88c36 -33.333 69.833 -69.166 101.5 -107.499s60.5 -78.833 86.5 -121.5s48.5 -87.167 67.5 -133.5s33.833 -94.166 44.5 -143.499
c2.66699 -11.333 5.16699 -25.166 7.5 -41.499s4.5 -33.166 6.5 -50.499s3.5 -34.833 4.5 -52.5s1.5 -33.834 1.5 -48.501v-94c0 -82 -11 -158.5 -33 -229.5s-55.167 -132.667 -99.5 -185s-99.666 -93.666 -165.999 -123.999s-143.833 -45.5 -232.5 -45.5
c-86 0 -160.833 10.333 -224.5 31s-116.834 50.334 -159.501 89.001s-74.5 85 -95.5 139s-31.5 114.667 -31.5 182v93c0 96.667 13 182 39 256s62.167 136.167 108.5 186.5s101.166 88.333 164.499 114s132 38.5 206 38.5c30 0 60.167 -3.66699 90.5 -11
s57.166 -17.666 80.499 -30.999c-13.333 33.333 -31.666 67.666 -54.999 102.999s-51 70.666 -83 105.999l-245 -117zM814.001 621.996c0 68 -7.66504 124.333 -22.998 169s-35 80 -59 106s-51 44.167 -81 54.5s-59.333 15.5 -88 15.5c-22 0 -42.833 -2 -62.5 -6
s-36.834 -8.66699 -51.501 -14c-17.333 -6 -33 -12.667 -47 -20c-9.33301 -27.333 -17.666 -59 -24.999 -95c-6.66699 -30.667 -12.5 -68 -17.5 -112s-7.5 -93.333 -7.5 -148v-119c0 -59.333 7.33301 -110.166 22 -152.499s33.834 -77 57.501 -104s50.5 -46.833 80.5 -59.5
s60.333 -19 91 -19c20.667 0 40.667 2 60 6s36.666 8.66699 51.999 14c17.333 6 33.666 12.667 48.999 20c9.33301 25.333 17.666 55 24.999 89c6 29.333 11.667 65.166 17 107.499s8 91.833 8 148.5v119z" />
    <glyph glyph-name="ntilde" unicode="&#xf1;" horiz-adv-x="1392" 
d="M68 118l143.001 33.999v781l-143 34l20 118l335 22l58 -158c62.667 58 124 98.833 184 122.5s123.333 35.5 190 35.5c113.333 0 199.666 -29 258.999 -87s89 -142.667 89 -254v-614l143 -34l-20 -118h-536l-20 118l143 34v599c0 76.667 -12.167 131.834 -36.5 165.501
s-61.5 50.5 -111.5 50.5c-35.333 0 -75.833 -12.333 -121.5 -37s-93.167 -62 -142.5 -112v-666l143 -34l-20 -118h-536zM299.001 1307c0 84.667 20.499 148.166 61.499 190.499s97.167 63.5 168.5 63.5c38 0 76.5 -6.83301 115.5 -20.5s76.167 -28.834 111.5 -45.501
l98.5 -45.5c30.333 -13.667 55.5 -20.5 75.5 -20.5c22.667 0 40.5 9.83301 53.5 29.5s19.5 49.834 19.5 90.501l137 10v-72c0 -79.333 -18.667 -141.5 -56 -186.5s-91.333 -67.5 -162 -67.5c-34 0 -71.167 6.83301 -111.5 20.5s-79.833 28.834 -118.5 45.501l-108 45.5
c-33.333 13.667 -59.666 20.5 -78.999 20.5c-24 0 -42.833 -6.33301 -56.5 -19s-20.5 -39 -20.5 -79l-129 -10v50z" />
    <glyph glyph-name="ograve" unicode="&#xf2;" horiz-adv-x="1168" 
d="M566 -22c-160.667 0 -284.833 38.668 -372.5 116.001s-131.5 185.666 -131.5 324.999v93c0 186 48.333 331.667 145 437s225 158 385 158c158.667 0 283.667 -38.333 375 -115s137 -188.667 137 -336v-94c0 -178 -47.667 -319.833 -143 -425.5s-227 -158.5 -395 -158.5z
M814.001 622.001c0 112 -23.168 197.501 -69.501 256.501s-105.166 88.5 -176.499 88.5c-32 0 -62.333 -3.66699 -91 -11s-53.667 -17 -75 -29c-15.333 -46.667 -27.5 -101 -36.5 -163s-13.5 -126 -13.5 -192v-119c0 -106.667 23.667 -189.167 71 -247.5
s105.333 -87.5 174 -87.5c33.333 0 64.5 3.66699 93.5 11s53.5 17 73.5 29c14.667 38 26.667 87.167 36 147.5s14 126.166 14 197.499v119zM762 1275l-168 -10l-320 329v66l285 10l203 -363v-32z" />
    <glyph glyph-name="oacute" unicode="&#xf3;" horiz-adv-x="1168" 
d="M566 -22c-160.667 0 -284.833 38.668 -372.5 116.001s-131.5 185.666 -131.5 324.999v93c0 186 48.333 331.667 145 437s225 158 385 158c158.667 0 283.667 -38.333 375 -115s137 -188.667 137 -336v-94c0 -178 -47.667 -319.833 -143 -425.5s-227 -158.5 -395 -158.5z
M814.001 622.001c0 112 -23.168 197.501 -69.501 256.501s-105.166 88.5 -176.499 88.5c-32 0 -62.333 -3.66699 -91 -11s-53.667 -17 -75 -29c-15.333 -46.667 -27.5 -101 -36.5 -163s-13.5 -126 -13.5 -192v-119c0 -106.667 23.667 -189.167 71 -247.5
s105.333 -87.5 174 -87.5c33.333 0 64.5 3.66699 93.5 11s53.5 17 73.5 29c14.667 38 26.667 87.167 36 147.5s14 126.166 14 197.499v119zM518 1307l183 363l272 -10v-66l-300 -329l-155 10v32z" />
    <glyph glyph-name="ocircumflex" unicode="&#xf4;" horiz-adv-x="1168" 
d="M566 -22c-160.667 0 -284.833 38.668 -372.5 116.001s-131.5 185.666 -131.5 324.999v93c0 186 48.333 331.667 145 437s225 158 385 158c158.667 0 283.667 -38.333 375 -115s137 -188.667 137 -336v-94c0 -178 -47.667 -319.833 -143 -425.5s-227 -158.5 -395 -158.5z
M814.001 622.001c0 112 -23.168 197.501 -69.501 256.501s-105.166 88.5 -176.499 88.5c-32 0 -62.333 -3.66699 -91 -11s-53.667 -17 -75 -29c-15.333 -46.667 -27.5 -101 -36.5 -163s-13.5 -126 -13.5 -192v-119c0 -106.667 23.667 -189.167 71 -247.5
s105.333 -87.5 174 -87.5c33.333 0 64.5 3.66699 93.5 11s53.5 17 73.5 29c14.667 38 26.667 87.167 36 147.5s14 126.166 14 197.499v119zM984 1275l-175 -10l-188 219l-181 -219l-145 10v32l223 373l243 -10l223 -363v-32z" />
    <glyph glyph-name="otilde" unicode="&#xf5;" horiz-adv-x="1168" 
d="M566 -22c-160.667 0 -284.833 38.668 -372.5 116.001s-131.5 185.666 -131.5 324.999v93c0 186 48.333 331.667 145 437s225 158 385 158c158.667 0 283.667 -38.333 375 -115s137 -188.667 137 -336v-94c0 -178 -47.667 -319.833 -143 -425.5s-227 -158.5 -395 -158.5z
M814.001 622.001c0 112 -23.168 197.501 -69.501 256.501s-105.166 88.5 -176.499 88.5c-32 0 -62.333 -3.66699 -91 -11s-53.667 -17 -75 -29c-15.333 -46.667 -27.5 -101 -36.5 -163s-13.5 -126 -13.5 -192v-119c0 -106.667 23.667 -189.167 71 -247.5
s105.333 -87.5 174 -87.5c33.333 0 64.5 3.66699 93.5 11s53.5 17 73.5 29c14.667 38 26.667 87.167 36 147.5s14 126.166 14 197.499v119zM211 1307c0 84.667 20.499 148.166 61.499 190.499s97.167 63.5 168.5 63.5c38 0 76.5 -6.83301 115.5 -20.5
s76.167 -28.834 111.5 -45.501l98.5 -45.5c30.333 -13.667 55.5 -20.5 75.5 -20.5c22.667 0 40.5 9.83301 53.5 29.5s19.5 49.834 19.5 90.501l137 10v-72c0 -79.333 -18.667 -141.5 -56 -186.5s-91.333 -67.5 -162 -67.5c-34 0 -71.167 6.83301 -111.5 20.5
s-79.833 28.834 -118.5 45.501l-108 45.5c-33.333 13.667 -59.666 20.5 -78.999 20.5c-24 0 -42.833 -6.33301 -56.5 -19s-20.5 -39 -20.5 -79l-129 -10v50z" />
    <glyph glyph-name="odieresis" unicode="&#xf6;" horiz-adv-x="1168" 
d="M566 -22c-160.667 0 -284.833 38.668 -372.5 116.001s-131.5 185.666 -131.5 324.999v93c0 186 48.333 331.667 145 437s225 158 385 158c158.667 0 283.667 -38.333 375 -115s137 -188.667 137 -336v-94c0 -178 -47.667 -319.833 -143 -425.5s-227 -158.5 -395 -158.5z
M814.001 622.001c0 112 -23.168 197.501 -69.501 256.501s-105.166 88.5 -176.499 88.5c-32 0 -62.333 -3.66699 -91 -11s-53.667 -17 -75 -29c-15.333 -46.667 -27.5 -101 -36.5 -163s-13.5 -126 -13.5 -192v-119c0 -106.667 23.667 -189.167 71 -247.5
s105.333 -87.5 174 -87.5c33.333 0 64.5 3.66699 93.5 11s53.5 17 73.5 29c14.667 38 26.667 87.167 36 147.5s14 126.166 14 197.499v119zM259 1389c0 20.667 2.83398 40.167 8.50098 58.5s13.334 34.333 23.001 48s21 24.5 34 32.5s26.5 12 40.5 12
c20.667 0 40.167 -2.83301 58.5 -8.5s34.166 -13.5 47.499 -23.5s23.833 -21.5 31.5 -34.5s11.5 -26.833 11.5 -41.5c0 -20 -2.83301 -39 -8.5 -57s-13.167 -34 -22.5 -48s-20.5 -25 -33.5 -33s-26.5 -12 -40.5 -12c-21.333 0 -41 2.83301 -59 8.5s-33.833 13.5 -47.5 23.5
s-24.334 21.5 -32.001 34.5s-11.5 26.5 -11.5 40.5zM739.001 1389c0 20.667 2.83301 40.167 8.5 58.5s13.167 34.333 22.5 48s20.5 24.5 33.5 32.5s26.5 12 40.5 12c20.667 0 40.167 -2.83301 58.5 -8.5s34.333 -13.5 48 -23.5s24.334 -21.5 32.001 -34.5
s11.5 -26.833 11.5 -41.5c0 -20 -2.83301 -39 -8.5 -57s-13.334 -34 -23.001 -48s-21 -25 -34 -33s-26.833 -12 -41.5 -12c-21.333 0 -41 2.83301 -59 8.5s-33.5 13.5 -46.5 23.5s-23.333 21.5 -31 34.5s-11.5 26.5 -11.5 40.5z" />
    <glyph glyph-name="divide" unicode="&#xf7;" horiz-adv-x="1213" 
d="M160 687h893v-187h-893v187zM485 176c0 22 2.5 43.166 7.5 63.499s11.833 38 20.5 53s19 27 31 36s24.667 13.5 38 13.5c23.333 0 45 -2.66699 65 -8s37.5 -12.5 52.5 -21.5s26.667 -19.667 35 -32s12.5 -25.166 12.5 -38.499c0 -21.333 -2.5 -41.833 -7.5 -61.5
s-12 -37 -21 -52s-19.5 -27 -31.5 -36s-25 -13.5 -39 -13.5c-22.667 0 -44 2.5 -64 7.5s-37.333 11.833 -52 20.5s-26.167 19 -34.5 31s-12.5 24.667 -12.5 38zM485 940.999c0 22 2.66602 43.167 7.99902 63.5s12.333 38 21 53s18.834 27 30.501 36s24.167 13.5 37.5 13.5
c23.333 0 45 -2.66699 65 -8s37.5 -12.5 52.5 -21.5s26.667 -19.5 35 -31.5s12.5 -25 12.5 -39c0 -21.333 -2.66699 -41.833 -8 -61.5s-12.5 -37 -21.5 -52s-19.5 -27 -31.5 -36s-24.667 -13.5 -38 -13.5c-22.667 0 -44 2.5 -64 7.5s-37.333 12 -52 21
s-26.167 19.333 -34.5 31s-12.5 24.167 -12.5 37.5z" />
    <glyph glyph-name="oslash" unicode="&#xf8;" horiz-adv-x="1168" 
d="M566 -22c-21.333 0 -41.998 1 -61.998 3l-64 -207h-165v20l67 216c-94 31.333 -164.167 82.166 -210.5 152.499s-69.5 155.833 -69.5 256.5v93c0 96.667 13.167 182 39.5 256s63 136.167 110 186.5s102.833 88.333 167.5 114s135.667 38.5 213 38.5
c16 0 31.667 -0.333008 47 -1s30.666 -2 45.999 -4l65 209h165v-20l-71 -227c40 -15.333 76 -35.333 108 -60s59.167 -53.834 81.5 -87.501s39.666 -72.167 51.999 -115.5s18.5 -91.666 18.5 -144.999v-94c0 -82 -11 -158.5 -33 -229.5s-55.333 -132.667 -100 -185
s-100.667 -93.666 -168 -123.999s-146.333 -45.5 -237 -45.5zM568.002 987c-24.667 0 -47.001 -2 -67.001 -6s-37.333 -8.66699 -52 -14c-17.333 -6 -33 -12.667 -47 -20c-9.33301 -28.667 -17.666 -62 -24.999 -100c-6.66699 -32.667 -12.5 -72 -17.5 -118
s-7.5 -98.333 -7.5 -157v-119c0 -52 4.83301 -97.5 14.5 -136.5s23.167 -72.833 40.5 -101.5l237 758c-26 9.33301 -51.333 14 -76 14zM814.001 622c0 47.333 -3.66504 89 -10.998 125s-17 67.667 -29 95l-231 -737c16.667 -4.66699 34.667 -7 54 -7c24 0 46.167 2 66.5 6
s38.166 8.66699 53.499 14c17.333 6 33 12.667 47 20c9.33301 26 17.666 57.333 24.999 94c6 31.333 11.667 69.333 17 114s8 97 8 157v119z" />
    <glyph glyph-name="ugrave" unicode="&#xf9;" horiz-adv-x="1316" 
d="M441 373c0 -88 12.666 -152.5 37.999 -193.5s65.666 -61.5 120.999 -61.5c36 0 74.5 13.333 115.5 40s80.167 63 117.5 109v666l-173 34l20 118l443 22v-955l143 -34l-20 -118l-335 -22l-58 158c-51.333 -52.667 -107.166 -92.167 -167.499 -118.5
s-125.166 -39.5 -194.499 -39.5c-113.333 0 -198.333 31.667 -255 95s-85 157 -85 281v579l-143 34l20 118l413 22v-734zM753.999 1275l-168 -10l-320 329v66l285 10l203 -363v-32z" />
    <glyph glyph-name="uacute" unicode="&#xfa;" horiz-adv-x="1316" 
d="M441 373c0 -88 12.666 -152.5 37.999 -193.5s65.666 -61.5 120.999 -61.5c36 0 74.5 13.333 115.5 40s80.167 63 117.5 109v666l-173 34l20 118l443 22v-955l143 -34l-20 -118l-335 -22l-58 158c-51.333 -52.667 -107.166 -92.167 -167.499 -118.5
s-125.166 -39.5 -194.499 -39.5c-113.333 0 -198.333 31.667 -255 95s-85 157 -85 281v579l-143 34l20 118l413 22v-734zM509.999 1307l183 363l272 -10v-66l-300 -329l-155 10v32z" />
    <glyph glyph-name="ucircumflex" unicode="&#xfb;" horiz-adv-x="1316" 
d="M441 373c0 -88 12.666 -152.5 37.999 -193.5s65.666 -61.5 120.999 -61.5c36 0 74.5 13.333 115.5 40s80.167 63 117.5 109v666l-173 34l20 118l443 22v-955l143 -34l-20 -118l-335 -22l-58 158c-51.333 -52.667 -107.166 -92.167 -167.499 -118.5
s-125.166 -39.5 -194.499 -39.5c-113.333 0 -198.333 31.667 -255 95s-85 157 -85 281v579l-143 34l20 118l413 22v-734zM975.999 1275l-175 -10l-188 219l-181 -219l-145 10v32l223 373l243 -10l223 -363v-32z" />
    <glyph glyph-name="udieresis" unicode="&#xfc;" horiz-adv-x="1316" 
d="M441 373c0 -88 12.666 -152.5 37.999 -193.5s65.666 -61.5 120.999 -61.5c36 0 74.5 13.333 115.5 40s80.167 63 117.5 109v666l-173 34l20 118l443 22v-955l143 -34l-20 -118l-335 -22l-58 158c-51.333 -52.667 -107.166 -92.167 -167.499 -118.5
s-125.166 -39.5 -194.499 -39.5c-113.333 0 -198.333 31.667 -255 95s-85 157 -85 281v579l-143 34l20 118l413 22v-734zM250.999 1389c0 20.667 2.83398 40.167 8.50098 58.5s13.334 34.333 23.001 48s21 24.5 34 32.5s26.5 12 40.5 12c20.667 0 40.167 -2.83301 58.5 -8.5
s34.166 -13.5 47.499 -23.5s23.833 -21.5 31.5 -34.5s11.5 -26.833 11.5 -41.5c0 -20 -2.83301 -39 -8.5 -57s-13.167 -34 -22.5 -48s-20.5 -25 -33.5 -33s-26.5 -12 -40.5 -12c-21.333 0 -41 2.83301 -59 8.5s-33.833 13.5 -47.5 23.5s-24.334 21.5 -32.001 34.5
s-11.5 26.5 -11.5 40.5zM731 1389c0 20.667 2.83301 40.167 8.5 58.5s13.167 34.333 22.5 48s20.5 24.5 33.5 32.5s26.5 12 40.5 12c20.667 0 40.167 -2.83301 58.5 -8.5s34.333 -13.5 48 -23.5s24.334 -21.5 32.001 -34.5s11.5 -26.833 11.5 -41.5
c0 -20 -2.83301 -39 -8.5 -57s-13.334 -34 -23.001 -48s-21 -25 -34 -33s-26.833 -12 -41.5 -12c-21.333 0 -41 2.83301 -59 8.5s-33.5 13.5 -46.5 23.5s-23.333 21.5 -31 34.5s-11.5 26.5 -11.5 40.5z" />
    <glyph glyph-name="yacute" unicode="&#xfd;" horiz-adv-x="1104" 
d="M1128 967l-92 -18.999l-333 -952c-57.333 -166.667 -116 -283.834 -176 -351.501s-136 -101.5 -228 -101.5c-47.333 0 -95 6 -143 18s-92 28.333 -132 49l41 171c50 -22 103.833 -41 161.5 -57s105.5 -24 143.5 -24c14.667 8.66699 31.167 24.667 49.5 48
s33.833 50 46.5 80l-394 1120l-92 19l20 118h450l20 -118l-123 -19l243 -726h16l240 726l-122 19l20 118h364zM511 1307l183 363l272 -10v-66l-300 -329l-155 10v32z" />
    <glyph glyph-name="thorn" unicode="&#xfe;" horiz-adv-x="1206" 
d="M147 1388l-163 33.998l20 118l433 22v-595l14 -6c12 13.333 27.5 28.5 46.5 45.5s41.833 33 68.5 48s56.5 27.5 89.5 37.5s69.5 15 109.5 15c60.667 0 114.167 -8.16699 160.5 -24.5s85.333 -42.166 117 -77.499s55.5 -80.833 71.5 -136.5s24 -123.167 24 -202.5v-94
c0 -89.333 -11.833 -170.5 -35.5 -243.5s-58 -135.5 -103 -187.5s-99.833 -92.167 -164.5 -120.5s-138 -42.5 -220 -42.5c-30 0 -60 1.33301 -90 4s-59.333 6.33398 -88 11.001v-275l163 -34l-20 -119h-576l-20 119l163 34v1670zM848 641.998
c0 64 -3.99902 116.835 -11.999 158.502s-19.667 74.834 -35 99.501s-33.833 42 -55.5 52s-45.834 15 -72.501 15c-30 0 -59 -7.5 -87 -22.5s-52.833 -31.5 -74.5 -49.5s-39.167 -34.833 -52.5 -50.5s-20.666 -24.5 -21.999 -26.5v-673
c23.333 -6.66699 52.666 -12.834 87.999 -18.501s72 -8.5 110 -8.5c22 0 43.167 2.16699 63.5 6.5s38.5 9.16602 54.5 14.499c18 6 35.333 13 52 21c7.33301 30.667 14.333 64.667 21 102c5.33301 32 10.333 70.167 15 114.5s7 93.166 7 146.499v119z" />
    <glyph glyph-name="ydieresis" unicode="&#xff;" horiz-adv-x="1104" 
d="M1128 967l-92 -18.999l-333 -952c-57.333 -166.667 -116 -283.834 -176 -351.501s-136 -101.5 -228 -101.5c-47.333 0 -95 6 -143 18s-92 28.333 -132 49l41 171c50 -22 103.833 -41 161.5 -57s105.5 -24 143.5 -24c14.667 8.66699 31.167 24.667 49.5 48
s33.833 50 46.5 80l-394 1120l-92 19l20 118h450l20 -118l-123 -19l243 -726h16l240 726l-122 19l20 118h364zM252 1389c0 20.667 2.83398 40.167 8.50098 58.5s13.334 34.333 23.001 48s21 24.5 34 32.5s26.5 12 40.5 12c20.667 0 40.167 -2.83301 58.5 -8.5
s34.166 -13.5 47.499 -23.5s23.833 -21.5 31.5 -34.5s11.5 -26.833 11.5 -41.5c0 -20 -2.83301 -39 -8.5 -57s-13.167 -34 -22.5 -48s-20.5 -25 -33.5 -33s-26.5 -12 -40.5 -12c-21.333 0 -41 2.83301 -59 8.5s-33.833 13.5 -47.5 23.5s-24.334 21.5 -32.001 34.5
s-11.5 26.5 -11.5 40.5zM732.001 1389c0 20.667 2.83301 40.167 8.5 58.5s13.167 34.333 22.5 48s20.5 24.5 33.5 32.5s26.5 12 40.5 12c20.667 0 40.167 -2.83301 58.5 -8.5s34.333 -13.5 48 -23.5s24.334 -21.5 32.001 -34.5s11.5 -26.833 11.5 -41.5
c0 -20 -2.83301 -39 -8.5 -57s-13.334 -34 -23.001 -48s-21 -25 -34 -33s-26.833 -12 -41.5 -12c-21.333 0 -41 2.83301 -59 8.5s-33.5 13.5 -46.5 23.5s-23.333 21.5 -31 34.5s-11.5 26.5 -11.5 40.5z" />
    <glyph glyph-name="Amacron" unicode="&#x100;" 
d="M-26 118l100 28l433 1207h263l423 -1207l99 -28l-20 -118h-494l-20 118l132 28l-82 240h-453l-84 -240l132 -28l-20 -118h-389zM406 535h352l-166 488h-16zM245 1690h810l-20 -160h-810z" />
    <glyph glyph-name="amacron" unicode="&#x101;" horiz-adv-x="1188" 
d="M1001 152l142.999 -33.999l-20 -118l-335 -22l-57 158c-41.333 -47.333 -93.166 -85.5 -155.499 -114.5s-129.166 -43.5 -200.499 -43.5c-98.667 0 -174.334 22.167 -227.001 66.5s-79 108.5 -79 192.5c0 126.667 53.833 221.667 161.5 285s267.5 95 479.5 95v93
c0 88 -15.167 152.833 -45.5 194.5s-79.5 62.5 -147.5 62.5c-28 0 -54.167 -1.5 -78.5 -4.5s-45.5 -6.5 -63.5 -10.5l-60 -212l-168 10v303c56.667 16 120.5 29 191.5 39s139.833 15 206.5 15c154.667 0 269.167 -30.833 343.5 -92.5s111.5 -154.834 111.5 -279.501v-583z
M710.999 477.001c-66.667 0 -128.833 -5.33301 -186.5 -16s-102.5 -24.667 -134.5 -42c-8 -16.667 -15 -37.5 -21 -62.5s-9 -52.167 -9 -81.5c0 -50.667 10.333 -89.5 31 -116.5s50.334 -40.5 89.001 -40.5c42 0 84.167 12.833 126.5 38.5s77.166 55.167 104.499 88.5v232z
M206 1493h750l-20 -160h-750z" />
    <glyph glyph-name="Abreve" unicode="&#x102;" 
d="M-26 118l100 28l433 1207h263l423 -1207l99 -28l-20 -118h-494l-20 118l132 28l-82 240h-453l-84 -240l132 -28l-20 -118h-389zM406 535h352l-166 488h-16zM1006 1749c0 -31.333 -7.16504 -64.166 -21.498 -98.499s-36.166 -65.833 -65.499 -94.5
s-66.333 -52.334 -111 -71.001s-97.334 -28 -158.001 -28s-113.334 9.33301 -158.001 28s-81.667 42.334 -111 71.001s-51.166 60.167 -65.499 94.5s-21.5 67.166 -21.5 98.499l117 10c0 -8 3.16699 -19.5 9.5 -34.5s18.166 -29.667 35.499 -44s41.5 -26.833 72.5 -37.5
s71.5 -16 121.5 -16s90.5 5.33301 121.5 16s55.167 23.167 72.5 37.5s29.166 29 35.499 44s9.5 26.5 9.5 34.5z" />
    <glyph glyph-name="abreve" unicode="&#x103;" horiz-adv-x="1188" 
d="M1001 152l142.999 -33.999l-20 -118l-335 -22l-57 158c-41.333 -47.333 -93.166 -85.5 -155.499 -114.5s-129.166 -43.5 -200.499 -43.5c-98.667 0 -174.334 22.167 -227.001 66.5s-79 108.5 -79 192.5c0 126.667 53.833 221.667 161.5 285s267.5 95 479.5 95v93
c0 88 -15.167 152.833 -45.5 194.5s-79.5 62.5 -147.5 62.5c-28 0 -54.167 -1.5 -78.5 -4.5s-45.5 -6.5 -63.5 -10.5l-60 -212l-168 10v303c56.667 16 120.5 29 191.5 39s139.833 15 206.5 15c154.667 0 269.167 -30.833 343.5 -92.5s111.5 -154.834 111.5 -279.501v-583z
M710.999 477.001c-66.667 0 -128.833 -5.33301 -186.5 -16s-102.5 -24.667 -134.5 -42c-8 -16.667 -15 -37.5 -21 -62.5s-9 -52.167 -9 -81.5c0 -50.667 10.333 -89.5 31 -116.5s50.334 -40.5 89.001 -40.5c42 0 84.167 12.833 126.5 38.5s77.166 55.167 104.499 88.5v232z
M888 1592c0 -39.333 -7.16699 -78.5 -21.5 -117.5s-35.166 -74 -62.499 -105s-61.333 -56.167 -102 -75.5s-87.334 -29 -140.001 -29s-99.334 9.66699 -140.001 29s-74.667 44.5 -102 75.5s-48.166 66 -62.499 105s-21.5 78.167 -21.5 117.5l117 10
c0 -12 3.66699 -27 11 -45s19.166 -35.333 35.499 -52s37.833 -30.834 64.5 -42.501s59.334 -17.5 98.001 -17.5s71.334 5.83301 98.001 17.5s48.167 25.834 64.5 42.501s28.166 34 35.499 52s11 33 11 45z" />
    <glyph glyph-name="Aogonek" unicode="&#x104;" 
d="M940 0c-25.333 -20 -48 -42.002 -68 -66.002s-37 -48.167 -51 -72.5s-24.667 -48.166 -32 -71.499s-11 -45 -11 -65c0 -23.333 4.66699 -39.5 14 -48.5s24.333 -13.5 45 -13.5c17.333 0 35.333 4.16699 54 12.5s35.667 17.5 51 27.5c18 12 35.667 25.333 53 40v-113
c-19.333 -16.667 -41 -31.334 -65 -44.001c-21.333 -11.333 -46.5 -21.333 -75.5 -30s-61.833 -13 -98.5 -13c-54 0 -95.667 9.66699 -125 29s-44 54 -44 104c0 42.667 9.16699 83.834 27.5 123.501s43.5 77.834 75.5 114.501s69.333 71.667 112 105
c33.333 26 68.333 51.333 105 76l-99 291h-453l-84 -240l132 -28l-20 -118h-389l-20 118l100 28l433 1207h263l423 -1207l99 -28l-20 -118h-332zM406 534.998h352l-166 488h-16z" />
    <glyph glyph-name="aogonek" unicode="&#x105;" horiz-adv-x="1188" 
d="M1001 152l142.998 -33.998v-1l-20 -117c-31.333 -22 -58.833 -45.5 -82.5 -70.5s-43.667 -49.667 -60 -74s-28.666 -47.833 -36.999 -70.5s-12.5 -42.667 -12.5 -60c0 -23.333 4.66699 -39.5 14 -48.5s24.333 -13.5 45 -13.5c17.333 0 35.333 4.16699 54 12.5
s35.667 17.5 51 27.5c18 12 35.667 25.333 53 40v-113c-19.333 -16.667 -41 -31.334 -65 -44.001c-21.333 -11.333 -46.5 -21.333 -75.5 -30s-61.833 -13 -98.5 -13c-54 0 -95.667 9.66699 -125 29s-44 54 -44 104c0 42 10.333 82.5 31 121.5s49 76.833 85 113.5
c26 26.667 55.333 52.667 88 78l-156 -11l-57 158c-41.333 -47.333 -93.166 -85.5 -155.499 -114.5s-129.166 -43.5 -200.499 -43.5c-98.667 0 -174.334 22.167 -227.001 66.5s-79 108.5 -79 192.5c0 126.667 53.833 221.667 161.5 285s267.5 95 479.5 95v93
c0 88 -15.167 152.833 -45.5 194.5s-79.5 62.5 -147.5 62.5c-28 0 -54.167 -1.5 -78.5 -4.5s-45.5 -6.5 -63.5 -10.5l-60 -212l-168 10v303c56.667 16 120.5 29 191.5 39s139.833 15 206.5 15c154.667 0 269.167 -30.833 343.5 -92.5s111.5 -154.834 111.5 -279.501v-583z
M710.998 477.002c-66.667 0 -128.833 -5.33301 -186.5 -16s-102.5 -24.667 -134.5 -42c-8 -16.667 -15 -37.5 -21 -62.5s-9 -52.167 -9 -81.5c0 -50.667 10.333 -89.5 31 -116.5s50.334 -40.5 89.001 -40.5c42 0 84.167 12.833 126.5 38.5s77.166 55.167 104.499 88.5v232z
" />
    <glyph glyph-name="Cacute" unicode="&#x106;" horiz-adv-x="1186" 
d="M70 604c0 252.667 55.6602 444.335 166.993 575.002s277.333 196 498 196c60.667 0 122.834 -5 186.501 -15s122.5 -24.667 176.5 -44l21 -290l-155 -22l-85 199c-21.333 7.33301 -47.5 13 -78.5 17s-61.833 6 -92.5 6c-50 0 -100.167 -7.33301 -150.5 -22
s-93.166 -33.334 -128.499 -56.001c-16.667 -61.333 -30.667 -132.666 -42 -213.999s-17 -165 -17 -251v-133c0 -138.667 32.833 -243.834 98.5 -315.501s163.167 -107.5 292.5 -107.5c56.667 0 116.834 9.33301 180.501 28s123.834 44 180.501 76v-126
c-59.333 -38.667 -128.166 -69.5 -206.499 -92.5s-158.166 -34.5 -239.499 -34.5c-199.333 0 -350.166 45.667 -452.499 137s-153.5 224.666 -153.5 399.999v89zM553.993 1503l278 281l282 -10v-66l-395 -248l-165 11v32z" />
    <glyph glyph-name="cacute" unicode="&#x107;" horiz-adv-x="992" 
d="M62 492c0 201.333 47.168 354.167 141.501 458.5s224.5 156.5 390.5 156.5c54 0 110 -5.5 168 -16.5s111.667 -26.5 161 -46.5l19 -254l-170 -23l-73 190c-22 4 -43.5 6.66699 -64.5 8s-40.833 2 -59.5 2c-31.333 0 -62.5 -3.83301 -93.5 -11.5
s-57.5 -17.167 -79.5 -28.5c-13.333 -44.667 -25 -100.667 -35 -168s-15 -136.333 -15 -207v-109c0 -106.667 24.5 -187.5 73.5 -242.5s120.167 -82.5 213.5 -82.5c42.667 0 92 7.66699 148 23s105 32 147 50v-116c-50.667 -29.333 -109.834 -52.833 -177.501 -70.5
s-136.5 -26.5 -206.5 -26.5c-153.333 0 -273 36.333 -359 109s-129 176.667 -129 312v93zM479.001 1307l183 363l272 -10v-66l-300 -329l-155 10v32z" />
    <glyph glyph-name="Ccircumflex" unicode="&#x108;" horiz-adv-x="1186" 
d="M70 604c0 252.667 55.6602 444.335 166.993 575.002s277.333 196 498 196c60.667 0 122.834 -5 186.501 -15s122.5 -24.667 176.5 -44l21 -290l-155 -22l-85 199c-21.333 7.33301 -47.5 13 -78.5 17s-61.833 6 -92.5 6c-50 0 -100.167 -7.33301 -150.5 -22
s-93.166 -33.334 -128.499 -56.001c-16.667 -61.333 -30.667 -132.666 -42 -213.999s-17 -165 -17 -251v-133c0 -138.667 32.833 -243.834 98.5 -315.501s163.167 -107.5 292.5 -107.5c56.667 0 116.834 9.33301 180.501 28s123.834 44 180.501 76v-126
c-59.333 -38.667 -128.166 -69.5 -206.499 -92.5s-158.166 -34.5 -239.499 -34.5c-199.333 0 -350.166 45.667 -452.499 137s-153.5 224.666 -153.5 399.999v89zM1089.99 1470l-175 -10l-213 171l-206 -171l-145 10v32l263 292l223 -10l253 -282v-32z" />
    <glyph glyph-name="ccircumflex" unicode="&#x109;" horiz-adv-x="992" 
d="M62 492c0 201.333 47.168 354.167 141.501 458.5s224.5 156.5 390.5 156.5c54 0 110 -5.5 168 -16.5s111.667 -26.5 161 -46.5l19 -254l-170 -23l-73 190c-22 4 -43.5 6.66699 -64.5 8s-40.833 2 -59.5 2c-31.333 0 -62.5 -3.83301 -93.5 -11.5
s-57.5 -17.167 -79.5 -28.5c-13.333 -44.667 -25 -100.667 -35 -168s-15 -136.333 -15 -207v-109c0 -106.667 24.5 -187.5 73.5 -242.5s120.167 -82.5 213.5 -82.5c42.667 0 92 7.66699 148 23s105 32 147 50v-116c-50.667 -29.333 -109.834 -52.833 -177.501 -70.5
s-136.5 -26.5 -206.5 -26.5c-153.333 0 -273 36.333 -359 109s-129 176.667 -129 312v93zM945.001 1275l-175 -10l-188 219l-181 -219l-145 10v32l223 373l243 -10l223 -363v-32z" />
    <glyph glyph-name="Cdotaccent" unicode="&#x10a;" horiz-adv-x="1186" 
d="M70 604c0 252.667 55.6602 444.335 166.993 575.002s277.333 196 498 196c60.667 0 122.834 -5 186.501 -15s122.5 -24.667 176.5 -44l21 -290l-155 -22l-85 199c-21.333 7.33301 -47.5 13 -78.5 17s-61.833 6 -92.5 6c-50 0 -100.167 -7.33301 -150.5 -22
s-93.166 -33.334 -128.499 -56.001c-16.667 -61.333 -30.667 -132.666 -42 -213.999s-17 -165 -17 -251v-133c0 -138.667 32.833 -243.834 98.5 -315.501s163.167 -107.5 292.5 -107.5c56.667 0 116.834 9.33301 180.501 28s123.834 44 180.501 76v-126
c-59.333 -38.667 -128.166 -69.5 -206.499 -92.5s-158.166 -34.5 -239.499 -34.5c-199.333 0 -350.166 45.667 -452.499 137s-153.5 224.666 -153.5 399.999v89zM586.993 1584c0 22.667 3.16699 44 9.5 64s14.833 37.667 25.5 53s23.167 27.5 37.5 36.5s29.5 13.5 45.5 13.5
c22.667 0 44.167 -3.16699 64.5 -9.5s38 -14.833 53 -25.5s26.833 -23.167 35.5 -37.5s13 -29.833 13 -46.5c0 -22 -3.16699 -43.167 -9.5 -63.5s-14.833 -38 -25.5 -53s-23.167 -27 -37.5 -36s-29.5 -13.5 -45.5 -13.5c-23.333 0 -45 3.16699 -65 9.5
s-37.5 14.833 -52.5 25.5s-26.833 23.167 -35.5 37.5s-13 29.5 -13 45.5z" />
    <glyph glyph-name="cdotaccent" unicode="&#x10b;" horiz-adv-x="992" 
d="M62 492c0 201.333 47.168 354.167 141.501 458.5s224.5 156.5 390.5 156.5c54 0 110 -5.5 168 -16.5s111.667 -26.5 161 -46.5l19 -254l-170 -23l-73 190c-22 4 -43.5 6.66699 -64.5 8s-40.833 2 -59.5 2c-31.333 0 -62.5 -3.83301 -93.5 -11.5
s-57.5 -17.167 -79.5 -28.5c-13.333 -44.667 -25 -100.667 -35 -168s-15 -136.333 -15 -207v-109c0 -106.667 24.5 -187.5 73.5 -242.5s120.167 -82.5 213.5 -82.5c42.667 0 92 7.66699 148 23s105 32 147 50v-116c-50.667 -29.333 -109.834 -52.833 -177.501 -70.5
s-136.5 -26.5 -206.5 -26.5c-153.333 0 -273 36.333 -359 109s-129 176.667 -129 312v93zM458.001 1395c0 22.667 3.16699 44 9.5 64s14.833 37.667 25.5 53s23.167 27.5 37.5 36.5s29.5 13.5 45.5 13.5c22.667 0 44.167 -3.16699 64.5 -9.5s38 -14.833 53 -25.5
s26.833 -23.167 35.5 -37.5s13 -29.833 13 -46.5c0 -22 -3.16699 -43.167 -9.5 -63.5s-14.833 -38 -25.5 -53s-23.167 -27 -37.5 -36s-29.5 -13.5 -45.5 -13.5c-23.333 0 -45 3.16699 -65 9.5s-37.5 14.833 -52.5 25.5s-26.833 23.167 -35.5 37.5s-13 29.5 -13 45.5z" />
    <glyph glyph-name="Ccaron" unicode="&#x10c;" horiz-adv-x="1186" 
d="M70 604c0 252.667 55.6602 444.335 166.993 575.002s277.333 196 498 196c60.667 0 122.834 -5 186.501 -15s122.5 -24.667 176.5 -44l21 -290l-155 -22l-85 199c-21.333 7.33301 -47.5 13 -78.5 17s-61.833 6 -92.5 6c-50 0 -100.167 -7.33301 -150.5 -22
s-93.166 -33.334 -128.499 -56.001c-16.667 -61.333 -30.667 -132.666 -42 -213.999s-17 -165 -17 -251v-133c0 -138.667 32.833 -243.834 98.5 -315.501s163.167 -107.5 292.5 -107.5c56.667 0 116.834 9.33301 180.501 28s123.834 44 180.501 76v-126
c-59.333 -38.667 -128.166 -69.5 -206.499 -92.5s-158.166 -34.5 -239.499 -34.5c-199.333 0 -350.166 45.667 -452.499 137s-153.5 224.666 -153.5 399.999v89zM342.993 1784l175 10l213 -172l206 172l145 -10v-32l-263 -292l-223 10l-253 282v32z" />
    <glyph glyph-name="ccaron" unicode="&#x10d;" horiz-adv-x="992" 
d="M62 492c0 201.333 47.168 354.167 141.501 458.5s224.5 156.5 390.5 156.5c54 0 110 -5.5 168 -16.5s111.667 -26.5 161 -46.5l19 -254l-170 -23l-73 190c-22 4 -43.5 6.66699 -64.5 8s-40.833 2 -59.5 2c-31.333 0 -62.5 -3.83301 -93.5 -11.5
s-57.5 -17.167 -79.5 -28.5c-13.333 -44.667 -25 -100.667 -35 -168s-15 -136.333 -15 -207v-109c0 -106.667 24.5 -187.5 73.5 -242.5s120.167 -82.5 213.5 -82.5c42.667 0 92 7.66699 148 23s105 32 147 50v-116c-50.667 -29.333 -109.834 -52.833 -177.501 -70.5
s-136.5 -26.5 -206.5 -26.5c-153.333 0 -273 36.333 -359 109s-129 176.667 -129 312v93zM256.001 1660l175 10l187 -220l182 220l145 -10v-32l-223 -373l-243 10l-223 363v32z" />
    <glyph glyph-name="Dcaron" unicode="&#x10e;" horiz-adv-x="1428" 
d="M213 1201l-142.999 34l20 118h618c211.333 0 370.833 -50.333 478.5 -151s161.5 -246.334 161.5 -437.001v-78c0 -211.333 -56.833 -378.666 -170.5 -501.999s-266.834 -185 -459.501 -185h-628l-20 118l143 34v1049zM513.001 1204v-1055h161
c39.333 0 80.333 2.66699 123 8s81 12.333 115 21c34.667 48 66 112.667 94 194s42 164.666 42 249.999v94c0 165.333 -33.333 288 -100 368s-169 120 -307 120h-128zM247.001 1784l175 10l213 -172l206 172l145 -10v-32l-263 -292l-223 10l-253 282v32z" />
    <glyph glyph-name="dcaron" unicode="&#x10f;" horiz-adv-x="1242" 
d="M1067 152l142.998 -34.001l-20 -118l-335 -22l-57 158c-37.333 -47.333 -86.166 -85.5 -146.499 -114.5s-123.833 -43.5 -190.5 -43.5c-129.333 0 -227.5 36.333 -294.5 109s-100.5 181.334 -100.5 326.001v93c0 188 47 335.167 141 441.5s226.333 159.5 397 159.5
c25.333 0 53.333 -1.83301 84 -5.5s60.334 -8.16699 89.001 -13.5v300l-143 34l20 118l413 22v-1410zM355.998 422.999c0 -100 15.833 -175.833 47.5 -227.5s78.167 -77.5 139.5 -77.5c39.333 0 79.833 11.833 121.5 35.5s79.167 54.167 112.5 91.5v697
c-24 6 -53.5 11.667 -88.5 17s-69.833 8 -104.5 8c-38 0 -73.5 -4.5 -106.5 -13.5s-60.167 -20.167 -81.5 -33.5c-11.333 -46 -20.833 -100.833 -28.5 -164.5s-11.5 -131.167 -11.5 -202.5v-130zM1198 1540h206v-62l-63 -321h-143v383z" />
    <glyph glyph-name="Dcroat" unicode="&#x110;" horiz-adv-x="1428" 
d="M50 778h163.001v423l-143 34l20 118h618c211.333 0 370.833 -50.333 478.5 -151s161.5 -246.334 161.5 -437.001v-78c0 -211.333 -56.833 -378.666 -170.5 -501.999s-266.834 -185 -459.501 -185h-628l-20 118l143 34v457h-163v169zM513.001 1204v-425.999h240v-169h-240
v-460h161c39.333 0 80.333 2.66699 123 8s81 12.333 115 21c34.667 48 66 112.667 94 194s42 164.666 42 249.999v94c0 165.333 -33.333 288 -100 368s-169 120 -307 120h-128z" />
    <glyph glyph-name="dcroat" unicode="&#x111;" horiz-adv-x="1242" 
d="M1067 152l142.998 -34.001l-20 -118l-335 -22l-57 158c-37.333 -47.333 -86.166 -85.5 -146.499 -114.5s-123.833 -43.5 -190.5 -43.5c-129.333 0 -227.5 36.333 -294.5 109s-100.5 181.334 -100.5 326.001v93c0 188 47 335.167 141 441.5s226.333 159.5 397 159.5
c25.333 0 53.333 -1.83301 84 -5.5s60.334 -8.16699 89.001 -13.5v105h-350v130h350v65l-143 34l20 118l413 22v-239h164v-130h-164v-1041zM355.998 422.999c0 -100 15.833 -175.833 47.5 -227.5s78.167 -77.5 139.5 -77.5c39.333 0 79.833 11.833 121.5 35.5
s79.167 54.167 112.5 91.5v697c-24 6 -53.5 11.667 -88.5 17s-69.833 8 -104.5 8c-38 0 -73.5 -4.5 -106.5 -13.5s-60.167 -20.167 -81.5 -33.5c-11.333 -46 -20.833 -100.833 -28.5 -164.5s-11.5 -131.167 -11.5 -202.5v-130z" />
    <glyph glyph-name="Emacron" unicode="&#x112;" horiz-adv-x="1203" 
d="M513 633v-484h401l83 193l134 -23l-24 -319h-1017l-20 118l143 34v1049l-143 34l20 118h987l24 -320l-133 -22l-83 193h-372v-422h287l34 112l119 -20v-334l-119 -20l-34 113h-287zM200 1690h810l-20 -160h-810z" />
    <glyph glyph-name="emacron" unicode="&#x113;" horiz-adv-x="1078" 
d="M354 513v-66c0 -106.667 25.833 -188.167 77.5 -244.5s129.834 -84.5 234.501 -84.5c45.333 0 98 6.66699 158 20s111.667 28.333 155 45v-116c-48.667 -24.667 -111.334 -45.667 -188.001 -63s-154.667 -26 -234 -26c-158 0 -279.667 37.333 -365 112
s-128 182.667 -128 324v83c0 192 48 341.667 144 449s229.333 161 400 161c152 0 260.667 -36.167 326 -108.5s98 -190.833 98 -355.5v-130h-678zM402 928c-10.667 -38.667 -20.167 -82.666 -28.5 -131.999s-13.833 -97 -16.5 -143h385c0 116.667 -13.333 198.167 -40 244.5
s-72 69.5 -136 69.5c-28 0 -56.167 -3.33301 -84.5 -10s-54.833 -16.334 -79.5 -29.001zM253 1493h750l-20 -160h-750z" />
    <glyph glyph-name="Ebreve" unicode="&#x114;" horiz-adv-x="1203" 
d="M513 633v-484h401l83 193l134 -23l-24 -319h-1017l-20 118l143 34v1049l-143 34l20 118h987l24 -320l-133 -22l-83 193h-372v-422h287l34 112l119 -20v-334l-119 -20l-34 113h-287zM961 1749c0 -31.333 -7.16504 -64.166 -21.498 -98.499s-36.166 -65.833 -65.499 -94.5
s-66.333 -52.334 -111 -71.001s-97.334 -28 -158.001 -28s-113.334 9.33301 -158.001 28s-81.667 42.334 -111 71.001s-51.166 60.167 -65.499 94.5s-21.5 67.166 -21.5 98.499l117 10c0 -8 3.16699 -19.5 9.5 -34.5s18.166 -29.667 35.499 -44s41.5 -26.833 72.5 -37.5
s71.5 -16 121.5 -16s90.5 5.33301 121.5 16s55.167 23.167 72.5 37.5s29.166 29 35.499 44s9.5 26.5 9.5 34.5z" />
    <glyph glyph-name="ebreve" unicode="&#x115;" horiz-adv-x="1078" 
d="M354 513v-66c0 -106.667 25.833 -188.167 77.5 -244.5s129.834 -84.5 234.501 -84.5c45.333 0 98 6.66699 158 20s111.667 28.333 155 45v-116c-48.667 -24.667 -111.334 -45.667 -188.001 -63s-154.667 -26 -234 -26c-158 0 -279.667 37.333 -365 112
s-128 182.667 -128 324v83c0 192 48 341.667 144 449s229.333 161 400 161c152 0 260.667 -36.167 326 -108.5s98 -190.833 98 -355.5v-130h-678zM402 928c-10.667 -38.667 -20.167 -82.666 -28.5 -131.999s-13.833 -97 -16.5 -143h385c0 116.667 -13.333 198.167 -40 244.5
s-72 69.5 -136 69.5c-28 0 -56.167 -3.33301 -84.5 -10s-54.833 -16.334 -79.5 -29.001zM935 1592c0 -39.333 -7.16699 -78.5 -21.5 -117.5s-35.166 -74 -62.499 -105s-61.333 -56.167 -102 -75.5s-87.334 -29 -140.001 -29s-99.334 9.66699 -140.001 29
s-74.667 44.5 -102 75.5s-48.166 66 -62.499 105s-21.5 78.167 -21.5 117.5l117 10c0 -12 3.66699 -27 11 -45s19.166 -35.333 35.499 -52s37.833 -30.834 64.5 -42.501s59.334 -17.5 98.001 -17.5s71.334 5.83301 98.001 17.5s48.167 25.834 64.5 42.501
s28.166 34 35.499 52s11 33 11 45z" />
    <glyph glyph-name="Edotaccent" unicode="&#x116;" horiz-adv-x="1203" 
d="M513 633v-484h401l83 193l134 -23l-24 -319h-1017l-20 118l143 34v1049l-143 34l20 118h987l24 -320l-133 -22l-83 193h-372v-422h287l34 112l119 -20v-334l-119 -20l-34 113h-287zM468 1584c0 22.667 3.16699 44 9.5 64s14.833 37.667 25.5 53s23.167 27.5 37.5 36.5
s29.5 13.5 45.5 13.5c22.667 0 44.167 -3.16699 64.5 -9.5s38 -14.833 53 -25.5s26.833 -23.167 35.5 -37.5s13 -29.833 13 -46.5c0 -22 -3.16699 -43.167 -9.5 -63.5s-14.833 -38 -25.5 -53s-23.167 -27 -37.5 -36s-29.5 -13.5 -45.5 -13.5c-23.333 0 -45 3.16699 -65 9.5
s-37.5 14.833 -52.5 25.5s-26.833 23.167 -35.5 37.5s-13 29.5 -13 45.5z" />
    <glyph glyph-name="edotaccent" unicode="&#x117;" horiz-adv-x="1078" 
d="M354 513v-66c0 -106.667 25.833 -188.167 77.5 -244.5s129.834 -84.5 234.501 -84.5c45.333 0 98 6.66699 158 20s111.667 28.333 155 45v-116c-48.667 -24.667 -111.334 -45.667 -188.001 -63s-154.667 -26 -234 -26c-158 0 -279.667 37.333 -365 112
s-128 182.667 -128 324v83c0 192 48 341.667 144 449s229.333 161 400 161c152 0 260.667 -36.167 326 -108.5s98 -190.833 98 -355.5v-130h-678zM402 928c-10.667 -38.667 -20.167 -82.666 -28.5 -131.999s-13.833 -97 -16.5 -143h385c0 116.667 -13.333 198.167 -40 244.5
s-72 69.5 -136 69.5c-28 0 -56.167 -3.33301 -84.5 -10s-54.833 -16.334 -79.5 -29.001zM466 1395c0 22.667 3.16699 44 9.5 64s14.833 37.667 25.5 53s23.167 27.5 37.5 36.5s29.5 13.5 45.5 13.5c22.667 0 44.167 -3.16699 64.5 -9.5s38 -14.833 53 -25.5
s26.833 -23.167 35.5 -37.5s13 -29.833 13 -46.5c0 -22 -3.16699 -43.167 -9.5 -63.5s-14.833 -38 -25.5 -53s-23.167 -27 -37.5 -36s-29.5 -13.5 -45.5 -13.5c-23.333 0 -45 3.16699 -65 9.5s-37.5 14.833 -52.5 25.5s-26.833 23.167 -35.5 37.5s-13 29.5 -13 45.5z" />
    <glyph glyph-name="Eogonek" unicode="&#x118;" horiz-adv-x="1203" 
d="M1107 0c-25.333 -20 -47.999 -42.002 -67.999 -66.002s-37 -48.167 -51 -72.5s-24.667 -48.166 -32 -71.499s-11 -45 -11 -65c0 -23.333 4.66699 -39.5 14 -48.5s24.333 -13.5 45 -13.5c17.333 0 35.333 4.16699 54 12.5s35.667 17.5 51 27.5c18 12 35.667 25.333 53 40
v-113c-19.333 -16.667 -41 -31.334 -65 -44.001c-21.333 -11.333 -46.5 -21.333 -75.5 -30s-61.833 -13 -98.5 -13c-54 0 -95.667 9.66699 -125 29s-44 54 -44 104c0 42.667 9.16699 83.834 27.5 123.501s43.5 77.834 75.5 114.501c25.333 30 54.666 58.667 87.999 86h-855
l-20 118l143 34v1049l-143 34l20 118h987l24 -320l-133 -22l-83 193h-372v-422h287l34 112l119 -20v-334l-119 -20l-34 113h-287v-484h401l83 193l134 -23z" />
    <glyph glyph-name="eogonek" unicode="&#x119;" horiz-adv-x="1078" 
d="M354 513l-0.000976562 -66c0 -106.667 25.833 -188.167 77.5 -244.5s129.834 -84.5 234.501 -84.5c45.333 0 98 6.66699 158 20s111.667 28.333 155 45v-116c-31.333 -26.667 -58.833 -55 -82.5 -85s-43.667 -59.833 -60 -89.5s-28.666 -58.167 -36.999 -85.5
s-12.5 -51.666 -12.5 -72.999c0 -28 5 -46.833 15 -56.5s26.667 -14.5 50 -14.5c15.333 0 32 4.16699 50 12.5s34.667 17.5 50 27.5c17.333 12 34.666 25.333 51.999 40v-113c-19.333 -16.667 -41 -31.334 -65 -44.001c-21.333 -11.333 -46.5 -21.333 -75.5 -30
s-61.833 -13 -98.5 -13c-26.667 0 -50.5 2.33301 -71.5 7s-38.667 12.5 -53 23.5s-25.333 25.667 -33 44s-11.5 41.5 -11.5 69.5c0 44 10.167 87.5 30.5 130.5s47.833 85.167 82.5 126.5c15.333 18 31.333 35.667 48 53c-66 -12.667 -132.667 -19 -200 -19
c-158 0 -279.667 37.333 -365 112s-128 182.667 -128 324v83c0 192 48 341.667 144 449s229.333 161 400 161c152 0 260.667 -36.167 326 -108.5s98 -190.833 98 -355.5v-130h-678zM401.999 928c-10.667 -38.667 -20.167 -82.666 -28.5 -131.999s-13.833 -97 -16.5 -143h385
c0 116.667 -13.333 198.167 -40 244.5s-72 69.5 -136 69.5c-28 0 -56.167 -3.33301 -84.5 -10s-54.833 -16.334 -79.5 -29.001z" />
    <glyph glyph-name="Ecaron" unicode="&#x11a;" horiz-adv-x="1203" 
d="M513 633v-484h401l83 193l134 -23l-24 -319h-1017l-20 118l143 34v1049l-143 34l20 118h987l24 -320l-133 -22l-83 193h-372v-422h287l34 112l119 -20v-334l-119 -20l-34 113h-287zM224 1784l175 10l213 -172l206 172l145 -10v-32l-263 -292l-223 10l-253 282v32z" />
    <glyph glyph-name="ecaron" unicode="&#x11b;" horiz-adv-x="1078" 
d="M354 513v-66c0 -106.667 25.833 -188.167 77.5 -244.5s129.834 -84.5 234.501 -84.5c45.333 0 98 6.66699 158 20s111.667 28.333 155 45v-116c-48.667 -24.667 -111.334 -45.667 -188.001 -63s-154.667 -26 -234 -26c-158 0 -279.667 37.333 -365 112
s-128 182.667 -128 324v83c0 192 48 341.667 144 449s229.333 161 400 161c152 0 260.667 -36.167 326 -108.5s98 -190.833 98 -355.5v-130h-678zM402 928c-10.667 -38.667 -20.167 -82.666 -28.5 -131.999s-13.833 -97 -16.5 -143h385c0 116.667 -13.333 198.167 -40 244.5
s-72 69.5 -136 69.5c-28 0 -56.167 -3.33301 -84.5 -10s-54.833 -16.334 -79.5 -29.001zM264 1660l175 10l187 -220l182 220l145 -10v-32l-223 -373l-243 10l-223 363v32z" />
    <glyph glyph-name="Gcircumflex" unicode="&#x11c;" horiz-adv-x="1330" 
d="M1154 105c-64.667 -39.333 -136.666 -70.168 -215.999 -92.501s-167 -33.833 -263 -34.5c-193.333 0 -341.833 44.667 -445.5 134s-155.5 220.333 -155.5 393v89c0 253.333 58.167 446.833 174.5 580.5s282.166 200.5 497.499 200.5c68.667 0 137 -4.83301 205 -14.5
s130.667 -23.834 188 -42.501l21 -290l-155 -22l-84 197c-30.667 8 -63.167 13.833 -97.5 17.5s-67.833 5.5 -100.5 5.5c-50.667 0 -100.834 -7 -150.501 -21s-96.167 -33 -139.5 -57c-17.333 -63.333 -31.5 -135.166 -42.5 -215.499s-16.5 -163.5 -16.5 -249.5v-133
c0 -135.333 33.833 -239.666 101.5 -312.999s154.834 -110 261.501 -110c18.667 0 38 1 58 3s39.667 5 59 9v355l-143 34l20 118h545l20 -118l-142 -34v-389zM1116 1470l-175 -10l-213 171l-206 -171l-145 10v32l263 292l223 -10l253 -282v-32z" />
    <glyph glyph-name="gcircumflex" unicode="&#x11d;" horiz-adv-x="1083" 
d="M870 958l-4.00195 -9.99805c32.667 -18.667 60.834 -45.667 84.501 -81s35.5 -74.333 35.5 -117v-15c0 -112.667 -42.5 -202 -127.5 -268s-195.833 -99 -332.5 -99c-24 0 -47 0.833008 -69 2.5s-43 4.16699 -63 7.5c-29.333 -25.333 -53 -49.333 -71 -72s-27 -41 -27 -55
c0 -16 7.83301 -27.167 23.5 -33.5s38.167 -9.5 67.5 -9.5h207c162 0 284.5 -25.833 367.5 -77.5s124.5 -128.834 124.5 -231.501c0 -114.667 -48.667 -202.667 -146 -264s-236 -92 -416 -92c-168.667 0 -292.167 15.833 -370.5 47.5s-117.5 81.834 -117.5 150.501
c0 41.333 17.167 83.666 51.5 126.999s82.5 85.333 144.5 126c-46.667 12 -82.667 31.167 -108 57.5s-38 59.166 -38 98.499c0 44 17.833 89.5 53.5 136.5s80.5 89.167 134.5 126.5c-64.667 29.333 -112.167 67 -142.5 113s-45.5 96.333 -45.5 151v24
c0 130 41.333 230.167 124 300.5s193.334 105.5 332.001 105.5c24 0 49 -1.83301 75 -5.5s51.333 -9.16699 76 -16.5h330l18 -127h-171zM370.998 -21.998c-30.667 -30 -55.833 -61.5 -75.5 -94.5s-29.5 -62.5 -29.5 -88.5c0 -44.667 21.833 -74.5 65.5 -89.5
s127.834 -22.5 252.501 -22.5c47.333 0 93.666 3.5 138.999 10.5s87.333 17.167 126 30.5c8 14 14.5 31.5 19.5 52.5s7.5 41.833 7.5 62.5c0 52 -22.167 88.167 -66.5 108.5s-116.5 30.5 -216.5 30.5h-220h-2zM695.999 764.002c0 65.333 -16.166 115.499 -48.499 150.499
s-72.833 52.5 -121.5 52.5c-19.333 0 -38.833 -1.66699 -58.5 -5s-36.834 -8.33301 -51.501 -15c-11.333 -25.333 -20.833 -56 -28.5 -92s-11.5 -73 -11.5 -111v-38c0 -59.333 17.167 -107.166 51.5 -143.499s73.833 -54.5 118.5 -54.5c23.333 0 44.5 1.83301 63.5 5.5
s34.5 8.5 46.5 14.5c11.333 22.667 20.833 51.5 28.5 86.5s11.5 72.167 11.5 111.5v38zM908 1275l-175 -10l-188 219l-181 -219l-145 10v32l223 373l243 -10l223 -363v-32z" />
    <glyph glyph-name="Gbreve" unicode="&#x11e;" horiz-adv-x="1330" 
d="M1154 105c-64.667 -39.333 -136.666 -70.168 -215.999 -92.501s-167 -33.833 -263 -34.5c-193.333 0 -341.833 44.667 -445.5 134s-155.5 220.333 -155.5 393v89c0 253.333 58.167 446.833 174.5 580.5s282.166 200.5 497.499 200.5c68.667 0 137 -4.83301 205 -14.5
s130.667 -23.834 188 -42.501l21 -290l-155 -22l-84 197c-30.667 8 -63.167 13.833 -97.5 17.5s-67.833 5.5 -100.5 5.5c-50.667 0 -100.834 -7 -150.501 -21s-96.167 -33 -139.5 -57c-17.333 -63.333 -31.5 -135.166 -42.5 -215.499s-16.5 -163.5 -16.5 -249.5v-133
c0 -135.333 33.833 -239.666 101.5 -312.999s154.834 -110 261.501 -110c18.667 0 38 1 58 3s39.667 5 59 9v355l-143 34l20 118h545l20 -118l-142 -34v-389zM1106 1749c0 -31.333 -7.16504 -64.166 -21.498 -98.499s-36.166 -65.833 -65.499 -94.5
s-66.333 -52.334 -111 -71.001s-97.334 -28 -158.001 -28s-113.334 9.33301 -158.001 28s-81.667 42.334 -111 71.001s-51.166 60.167 -65.499 94.5s-21.5 67.166 -21.5 98.499l117 10c0 -8 3.16699 -19.5 9.5 -34.5s18.166 -29.667 35.499 -44s41.5 -26.833 72.5 -37.5
s71.5 -16 121.5 -16s90.5 5.33301 121.5 16s55.167 23.167 72.5 37.5s29.166 29 35.499 44s9.5 26.5 9.5 34.5z" />
    <glyph glyph-name="gbreve" unicode="&#x11f;" horiz-adv-x="1083" 
d="M870 958l-4.00195 -9.99805c32.667 -18.667 60.834 -45.667 84.501 -81s35.5 -74.333 35.5 -117v-15c0 -112.667 -42.5 -202 -127.5 -268s-195.833 -99 -332.5 -99c-24 0 -47 0.833008 -69 2.5s-43 4.16699 -63 7.5c-29.333 -25.333 -53 -49.333 -71 -72s-27 -41 -27 -55
c0 -16 7.83301 -27.167 23.5 -33.5s38.167 -9.5 67.5 -9.5h207c162 0 284.5 -25.833 367.5 -77.5s124.5 -128.834 124.5 -231.501c0 -114.667 -48.667 -202.667 -146 -264s-236 -92 -416 -92c-168.667 0 -292.167 15.833 -370.5 47.5s-117.5 81.834 -117.5 150.501
c0 41.333 17.167 83.666 51.5 126.999s82.5 85.333 144.5 126c-46.667 12 -82.667 31.167 -108 57.5s-38 59.166 -38 98.499c0 44 17.833 89.5 53.5 136.5s80.5 89.167 134.5 126.5c-64.667 29.333 -112.167 67 -142.5 113s-45.5 96.333 -45.5 151v24
c0 130 41.333 230.167 124 300.5s193.334 105.5 332.001 105.5c24 0 49 -1.83301 75 -5.5s51.333 -9.16699 76 -16.5h330l18 -127h-171zM370.998 -21.998c-30.667 -30 -55.833 -61.5 -75.5 -94.5s-29.5 -62.5 -29.5 -88.5c0 -44.667 21.833 -74.5 65.5 -89.5
s127.834 -22.5 252.501 -22.5c47.333 0 93.666 3.5 138.999 10.5s87.333 17.167 126 30.5c8 14 14.5 31.5 19.5 52.5s7.5 41.833 7.5 62.5c0 52 -22.167 88.167 -66.5 108.5s-116.5 30.5 -216.5 30.5h-220h-2zM695.999 764.002c0 65.333 -16.166 115.499 -48.499 150.499
s-72.833 52.5 -121.5 52.5c-19.333 0 -38.833 -1.66699 -58.5 -5s-36.834 -8.33301 -51.501 -15c-11.333 -25.333 -20.833 -56 -28.5 -92s-11.5 -73 -11.5 -111v-38c0 -59.333 17.167 -107.166 51.5 -143.499s73.833 -54.5 118.5 -54.5c23.333 0 44.5 1.83301 63.5 5.5
s34.5 8.5 46.5 14.5c11.333 22.667 20.833 51.5 28.5 86.5s11.5 72.167 11.5 111.5v38zM890 1592c0 -39.333 -7.16699 -78.5 -21.5 -117.5s-35.166 -74 -62.499 -105s-61.333 -56.167 -102 -75.5s-87.334 -29 -140.001 -29s-99.334 9.66699 -140.001 29
s-74.667 44.5 -102 75.5s-48.166 66 -62.499 105s-21.5 78.167 -21.5 117.5l117 10c0 -12 3.66699 -27 11 -45s19.166 -35.333 35.499 -52s37.833 -30.834 64.5 -42.501s59.334 -17.5 98.001 -17.5s71.334 5.83301 98.001 17.5s48.167 25.834 64.5 42.501
s28.166 34 35.499 52s11 33 11 45z" />
    <glyph glyph-name="Gdotaccent" unicode="&#x120;" horiz-adv-x="1330" 
d="M1154 105c-64.667 -39.333 -136.666 -70.168 -215.999 -92.501s-167 -33.833 -263 -34.5c-193.333 0 -341.833 44.667 -445.5 134s-155.5 220.333 -155.5 393v89c0 253.333 58.167 446.833 174.5 580.5s282.166 200.5 497.499 200.5c68.667 0 137 -4.83301 205 -14.5
s130.667 -23.834 188 -42.501l21 -290l-155 -22l-84 197c-30.667 8 -63.167 13.833 -97.5 17.5s-67.833 5.5 -100.5 5.5c-50.667 0 -100.834 -7 -150.501 -21s-96.167 -33 -139.5 -57c-17.333 -63.333 -31.5 -135.166 -42.5 -215.499s-16.5 -163.5 -16.5 -249.5v-133
c0 -135.333 33.833 -239.666 101.5 -312.999s154.834 -110 261.501 -110c18.667 0 38 1 58 3s39.667 5 59 9v355l-143 34l20 118h545l20 -118l-142 -34v-389zM613.001 1584c0 22.667 3.16699 44 9.5 64s14.833 37.667 25.5 53s23.167 27.5 37.5 36.5s29.5 13.5 45.5 13.5
c22.667 0 44.167 -3.16699 64.5 -9.5s38 -14.833 53 -25.5s26.833 -23.167 35.5 -37.5s13 -29.833 13 -46.5c0 -22 -3.16699 -43.167 -9.5 -63.5s-14.833 -38 -25.5 -53s-23.167 -27 -37.5 -36s-29.5 -13.5 -45.5 -13.5c-23.333 0 -45 3.16699 -65 9.5
s-37.5 14.833 -52.5 25.5s-26.833 23.167 -35.5 37.5s-13 29.5 -13 45.5z" />
    <glyph glyph-name="gdotaccent" unicode="&#x121;" horiz-adv-x="1083" 
d="M870 958l-4.00195 -9.99805c32.667 -18.667 60.834 -45.667 84.501 -81s35.5 -74.333 35.5 -117v-15c0 -112.667 -42.5 -202 -127.5 -268s-195.833 -99 -332.5 -99c-24 0 -47 0.833008 -69 2.5s-43 4.16699 -63 7.5c-29.333 -25.333 -53 -49.333 -71 -72s-27 -41 -27 -55
c0 -16 7.83301 -27.167 23.5 -33.5s38.167 -9.5 67.5 -9.5h207c162 0 284.5 -25.833 367.5 -77.5s124.5 -128.834 124.5 -231.501c0 -114.667 -48.667 -202.667 -146 -264s-236 -92 -416 -92c-168.667 0 -292.167 15.833 -370.5 47.5s-117.5 81.834 -117.5 150.501
c0 41.333 17.167 83.666 51.5 126.999s82.5 85.333 144.5 126c-46.667 12 -82.667 31.167 -108 57.5s-38 59.166 -38 98.499c0 44 17.833 89.5 53.5 136.5s80.5 89.167 134.5 126.5c-64.667 29.333 -112.167 67 -142.5 113s-45.5 96.333 -45.5 151v24
c0 130 41.333 230.167 124 300.5s193.334 105.5 332.001 105.5c24 0 49 -1.83301 75 -5.5s51.333 -9.16699 76 -16.5h330l18 -127h-171zM370.998 -21.998c-30.667 -30 -55.833 -61.5 -75.5 -94.5s-29.5 -62.5 -29.5 -88.5c0 -44.667 21.833 -74.5 65.5 -89.5
s127.834 -22.5 252.501 -22.5c47.333 0 93.666 3.5 138.999 10.5s87.333 17.167 126 30.5c8 14 14.5 31.5 19.5 52.5s7.5 41.833 7.5 62.5c0 52 -22.167 88.167 -66.5 108.5s-116.5 30.5 -216.5 30.5h-220h-2zM695.999 764.002c0 65.333 -16.166 115.499 -48.499 150.499
s-72.833 52.5 -121.5 52.5c-19.333 0 -38.833 -1.66699 -58.5 -5s-36.834 -8.33301 -51.501 -15c-11.333 -25.333 -20.833 -56 -28.5 -92s-11.5 -73 -11.5 -111v-38c0 -59.333 17.167 -107.166 51.5 -143.499s73.833 -54.5 118.5 -54.5c23.333 0 44.5 1.83301 63.5 5.5
s34.5 8.5 46.5 14.5c11.333 22.667 20.833 51.5 28.5 86.5s11.5 72.167 11.5 111.5v38zM421 1395c0 22.667 3.16699 44 9.5 64s14.833 37.667 25.5 53s23.167 27.5 37.5 36.5s29.5 13.5 45.5 13.5c22.667 0 44.167 -3.16699 64.5 -9.5s38 -14.833 53 -25.5
s26.833 -23.167 35.5 -37.5s13 -29.833 13 -46.5c0 -22 -3.16699 -43.167 -9.5 -63.5s-14.833 -38 -25.5 -53s-23.167 -27 -37.5 -36s-29.5 -13.5 -45.5 -13.5c-23.333 0 -45 3.16699 -65 9.5s-37.5 14.833 -52.5 25.5s-26.833 23.167 -35.5 37.5s-13 29.5 -13 45.5z" />
    <glyph glyph-name="Gcommaaccent" unicode="&#x122;" horiz-adv-x="1330" 
d="M1154 105c-64.667 -39.333 -136.666 -70.168 -215.999 -92.501s-167 -33.833 -263 -34.5c-193.333 0 -341.833 44.667 -445.5 134s-155.5 220.333 -155.5 393v89c0 253.333 58.167 446.833 174.5 580.5s282.166 200.5 497.499 200.5c68.667 0 137 -4.83301 205 -14.5
s130.667 -23.834 188 -42.501l21 -290l-155 -22l-84 197c-30.667 8 -63.167 13.833 -97.5 17.5s-67.833 5.5 -100.5 5.5c-50.667 0 -100.834 -7 -150.501 -21s-96.167 -33 -139.5 -57c-17.333 -63.333 -31.5 -135.166 -42.5 -215.499s-16.5 -163.5 -16.5 -249.5v-133
c0 -135.333 33.833 -239.666 101.5 -312.999s154.834 -110 261.501 -110c18.667 0 38 1 58 3s39.667 5 59 9v355l-143 34l20 118h545l20 -118l-142 -34v-389zM596.001 -128.002h206v-62l-63 -321h-143v383z" />
    <glyph glyph-name="gcommaaccent" unicode="&#x123;" horiz-adv-x="1083" 
d="M870 958l-4.00195 -9.99805c32.667 -18.667 60.834 -45.667 84.501 -81s35.5 -74.333 35.5 -117v-15c0 -112.667 -42.5 -202 -127.5 -268s-195.833 -99 -332.5 -99c-24 0 -47 0.833008 -69 2.5s-43 4.16699 -63 7.5c-29.333 -25.333 -53 -49.333 -71 -72s-27 -41 -27 -55
c0 -16 7.83301 -27.167 23.5 -33.5s38.167 -9.5 67.5 -9.5h207c162 0 284.5 -25.833 367.5 -77.5s124.5 -128.834 124.5 -231.501c0 -114.667 -48.667 -202.667 -146 -264s-236 -92 -416 -92c-168.667 0 -292.167 15.833 -370.5 47.5s-117.5 81.834 -117.5 150.501
c0 41.333 17.167 83.666 51.5 126.999s82.5 85.333 144.5 126c-46.667 12 -82.667 31.167 -108 57.5s-38 59.166 -38 98.499c0 44 17.833 89.5 53.5 136.5s80.5 89.167 134.5 126.5c-64.667 29.333 -112.167 67 -142.5 113s-45.5 96.333 -45.5 151v24
c0 130 41.333 230.167 124 300.5s193.334 105.5 332.001 105.5c24 0 49 -1.83301 75 -5.5s51.333 -9.16699 76 -16.5h330l18 -127h-171zM370.998 -21.998c-30.667 -30 -55.833 -61.5 -75.5 -94.5s-29.5 -62.5 -29.5 -88.5c0 -44.667 21.833 -74.5 65.5 -89.5
s127.834 -22.5 252.501 -22.5c47.333 0 93.666 3.5 138.999 10.5s87.333 17.167 126 30.5c8 14 14.5 31.5 19.5 52.5s7.5 41.833 7.5 62.5c0 52 -22.167 88.167 -66.5 108.5s-116.5 30.5 -216.5 30.5h-220h-2zM695.999 764.002c0 65.333 -16.166 115.499 -48.499 150.499
s-72.833 52.5 -121.5 52.5c-19.333 0 -38.833 -1.66699 -58.5 -5s-36.834 -8.33301 -51.501 -15c-11.333 -25.333 -20.833 -56 -28.5 -92s-11.5 -73 -11.5 -111v-38c0 -59.333 17.167 -107.166 51.5 -143.499s73.833 -54.5 118.5 -54.5c23.333 0 44.5 1.83301 63.5 5.5
s34.5 8.5 46.5 14.5c11.333 22.667 20.833 51.5 28.5 86.5s11.5 72.167 11.5 111.5v38zM642.972 1264.99h-205.987v61.9961l62.9961 320.98h142.991v-382.977z" />
    <glyph glyph-name="Hcircumflex" unicode="&#x124;" horiz-adv-x="1541" 
d="M209 1201l-143 34l20 118h545l20 -118l-142 -34v-413h524v413l-142 34l20 118h546l20 -118l-144 -34v-1049l144 -34l-20 -118h-546l-20 118l142 34v487h-524v-487l142 -34l-20 -118h-545l-20 118l143 34v1049zM1160 1470l-175 -10l-213 171l-206 -171l-145 10v32l263 292
l223 -10l253 -282v-32z" />
    <glyph glyph-name="hcircumflex" unicode="&#x125;" horiz-adv-x="1378" 
d="M56 118l142.996 33.999v1236l-143 34l20 118l413 22v-595l14 -6c50.667 48 104.834 84.333 162.501 109s116.834 37 177.501 37c112.667 0 198.834 -28.833 258.501 -86.5s89.5 -142.5 89.5 -254.5v-614l143 -34l-20 -118h-536l-20 118l143 34v599
c0 72.667 -11.5 126.834 -34.5 162.501s-60.833 53.5 -113.5 53.5c-40 0 -84.167 -14.5 -132.5 -43.5s-92.166 -64.167 -131.499 -105.5v-666l143 -34l-20 -118h-536zM689.996 1680l-175 -10l-213 171l-206 -171l-145 10v32l263 292l223 -10l253 -282v-32z" />
    <glyph glyph-name="Hbar" unicode="&#x126;" horiz-adv-x="1541" 
d="M58 1085h151v116l-143 34l20 118h545l20 -118l-142 -34v-116h524v116l-142 34l20 118h546l20 -118l-144 -34v-116h166v-140h-166v-793l144 -34l-20 -118h-546l-20 118l142 34v487h-524v-487l142 -34l-20 -118h-545l-20 118l143 34v793h-151v140zM1033 788v157h-524v-157
h524z" />
    <glyph glyph-name="hbar" unicode="&#x127;" horiz-adv-x="1378" 
d="M56 118l142.996 33.999v1021h-153v140h153v75l-143 34l20 118l413 22v-249h310v-140h-310v-206l14 -6c50.667 48 104.834 84.333 162.501 109s116.834 37 177.501 37c112.667 0 198.834 -28.833 258.501 -86.5s89.5 -142.5 89.5 -254.5v-614l143 -34l-20 -118h-536
l-20 118l143 34v599c0 72.667 -11.5 126.834 -34.5 162.501s-60.833 53.5 -113.5 53.5c-40 0 -84.167 -14.5 -132.5 -43.5s-92.166 -64.167 -131.499 -105.5v-666l143 -34l-20 -118h-536z" />
    <glyph glyph-name="Itilde" unicode="&#x128;" horiz-adv-x="717" 
d="M211 1201l-143 34l20 118h545l20 -118l-142 -34v-1049l142 -34l-20 -118h-545l-20 118l143 34v1049zM-117 1523c0 84.667 22.334 148.166 67.001 190.499s105.667 63.5 183 63.5c44 0 88.333 -6.83301 133 -20.5s87.5 -28.834 128.5 -45.501l113 -45.5
c34.333 -13.667 63.166 -20.5 86.499 -20.5c28.667 0 51.334 9.83301 68.001 29.5s25 49.834 25 90.501l137 10v-72c0 -79.333 -20.5 -141.5 -61.5 -186.5s-99.833 -67.5 -176.5 -67.5c-38.667 0 -81 6.83301 -127 20.5s-91.167 28.834 -135.5 45.501l-123.5 45.5
c-38 13.667 -68.333 20.5 -91 20.5c-15.333 0 -28.833 -1.33301 -40.5 -4s-21.834 -7.66699 -30.501 -15s-15.167 -17.333 -19.5 -30s-6.5 -29 -6.5 -49l-129 -10v50z" />
    <glyph glyph-name="itilde" unicode="&#x129;" horiz-adv-x="696" 
d="M501 152l143 -34l-20 -118h-536l-20 118l143 34v781l-143 34l20 118l413 22v-955zM-96 1307c0 84.667 20.499 148.166 61.499 190.499s97.167 63.5 168.5 63.5c38 0 76.5 -6.83301 115.5 -20.5s76.167 -28.834 111.5 -45.501l98.5 -45.5
c30.333 -13.667 55.5 -20.5 75.5 -20.5c22.667 0 40.5 9.83301 53.5 29.5s19.5 49.834 19.5 90.501l137 10v-72c0 -79.333 -18.667 -141.5 -56 -186.5s-91.333 -67.5 -162 -67.5c-34 0 -71.167 6.83301 -111.5 20.5s-79.833 28.834 -118.5 45.501l-108 45.5
c-33.333 13.667 -59.666 20.5 -78.999 20.5c-24 0 -42.833 -6.33301 -56.5 -19s-20.5 -39 -20.5 -79l-129 -10v50z" />
    <glyph glyph-name="Imacron" unicode="&#x12a;" horiz-adv-x="717" 
d="M211 1201l-143 34l20 118h545l20 -118l-142 -34v-1049l142 -34l-20 -118h-545l-20 118l143 34v1049zM-39 1690h810l-20 -160h-810z" />
    <glyph glyph-name="imacron" unicode="&#x12b;" horiz-adv-x="696" 
d="M501 152l143 -34l-20 -118h-536l-20 118l143 34v781l-143 34l20 118l413 22v-955zM-23 1493h750l-20 -160h-750z" />
    <glyph glyph-name="Ibreve" unicode="&#x12c;" horiz-adv-x="717" 
d="M211 1201l-143 34l20 118h545l20 -118l-142 -34v-1049l142 -34l-20 -118h-545l-20 118l143 34v1049zM722 1749c0 -31.333 -7.16504 -64.166 -21.498 -98.499s-36.166 -65.833 -65.499 -94.5s-66.333 -52.334 -111 -71.001s-97.334 -28 -158.001 -28
s-113.334 9.33301 -158.001 28s-81.667 42.334 -111 71.001s-51.166 60.167 -65.499 94.5s-21.5 67.166 -21.5 98.499l117 10c0 -8 3.16699 -19.5 9.5 -34.5s18.166 -29.667 35.499 -44s41.5 -26.833 72.5 -37.5s71.5 -16 121.5 -16s90.5 5.33301 121.5 16
s55.167 23.167 72.5 37.5s29.166 29 35.499 44s9.5 26.5 9.5 34.5z" />
    <glyph glyph-name="ibreve" unicode="&#x12d;" horiz-adv-x="696" 
d="M501 152l143 -34l-20 -118h-536l-20 118l143 34v781l-143 34l20 118l413 22v-955zM659 1592c0 -39.333 -7.16699 -78.5 -21.5 -117.5s-35.166 -74 -62.499 -105s-61.333 -56.167 -102 -75.5s-87.334 -29 -140.001 -29s-99.334 9.66699 -140.001 29
s-74.667 44.5 -102 75.5s-48.166 66 -62.499 105s-21.5 78.167 -21.5 117.5l117 10c0 -12 3.66699 -27 11 -45s19.166 -35.333 35.499 -52s37.833 -30.834 64.5 -42.501s59.334 -17.5 98.001 -17.5s71.334 5.83301 98.001 17.5s48.167 25.834 64.5 42.501
s28.166 34 35.499 52s11 33 11 45z" />
    <glyph glyph-name="Iogonek" unicode="&#x12e;" horiz-adv-x="717" 
d="M412 0c-25.333 -20 -47.999 -42.002 -67.999 -66.002s-37 -48.167 -51 -72.5s-24.667 -48.166 -32 -71.499s-11 -45 -11 -65c0 -23.333 4.66699 -39.5 14 -48.5s24.333 -13.5 45 -13.5c17.333 0 35.333 4.16699 54 12.5s35.667 17.5 51 27.5c18 12 35.667 25.333 53 40
v-113c-19.333 -16.667 -41 -31.334 -65 -44.001c-21.333 -11.333 -46.5 -21.333 -75.5 -30s-61.833 -13 -98.5 -13c-54 0 -95.667 9.66699 -125 29s-44 54 -44 104c0 42.667 9.16699 83.834 27.5 123.501s43.5 77.834 75.5 114.501c25.333 30 54.666 58.667 87.999 86h-162
l-20 118l143 34v1049l-143 34l20 118h545l20 -118l-142 -34v-1049l142 -34l-20 -118h-221z" />
    <glyph glyph-name="iogonek" unicode="&#x12f;" horiz-adv-x="696" 
d="M422 0c-25.333 -20 -47.999 -42.002 -67.999 -66.002s-37 -48.167 -51 -72.5s-24.667 -48.166 -32 -71.499s-11 -45 -11 -65c0 -23.333 4.66699 -39.5 14 -48.5s24.333 -13.5 45 -13.5c17.333 0 35.333 4.16699 54 12.5s35.667 17.5 51 27.5c18 12 35.667 25.333 53 40
v-113c-19.333 -16.667 -41 -31.334 -65 -44.001c-21.333 -11.333 -46.5 -21.333 -75.5 -30s-61.833 -13 -98.5 -13c-54 0 -95.667 9.66699 -125 29s-44 54 -44 104c0 42.667 9.16699 83.834 27.5 123.501s43.5 77.834 75.5 114.501c25.333 30 54.666 58.667 87.999 86h-172
l-20 118l143 34v781l-143 34l20 118l413 22v-955l143 -34l-20 -118h-202zM186.001 1395c0 47.333 12.499 88.833 37.499 124.5s54.167 53.5 87.5 53.5c48.667 0 90.334 -12.333 125.001 -37s52 -54.667 52 -90c0 -47.333 -12.667 -88.5 -38 -123.5s-54.333 -52.5 -87 -52.5
c-48 0 -89.5 12.333 -124.5 37s-52.5 54 -52.5 88z" />
    <glyph glyph-name="Idotaccent" unicode="&#x130;" horiz-adv-x="717" 
d="M211 1201l-143 34l20 118h545l20 -118l-142 -34v-1049l142 -34l-20 -118h-545l-20 118l143 34v1049zM229 1584c0 22.667 3.16699 44 9.5 64s14.833 37.667 25.5 53s23.167 27.5 37.5 36.5s29.5 13.5 45.5 13.5c22.667 0 44.167 -3.16699 64.5 -9.5s38 -14.833 53 -25.5
s26.833 -23.167 35.5 -37.5s13 -29.833 13 -46.5c0 -22 -3.16699 -43.167 -9.5 -63.5s-14.833 -38 -25.5 -53s-23.167 -27 -37.5 -36s-29.5 -13.5 -45.5 -13.5c-23.333 0 -45 3.16699 -65 9.5s-37.5 14.833 -52.5 25.5s-26.833 23.167 -35.5 37.5s-13 29.5 -13 45.5z" />
    <glyph glyph-name="dotlessi" unicode="&#x131;" horiz-adv-x="696" 
d="M501 152l143 -34l-20 -118h-536l-20 118l143 34v781l-143 34l20 118l413 22v-955z" />
    <glyph glyph-name="IJ" unicode="&#x132;" horiz-adv-x="1614" 
d="M211 1201l-143 34l20 118h545l20 -118l-142 -34v-1049l142 -34l-20 -118h-545l-20 118l143 34v1049zM1456 336c0 -116.667 -33.832 -205.498 -101.499 -266.498s-171.167 -91.5 -310.5 -91.5c-48.667 0 -98.667 5.16699 -150 15.5s-96 22.833 -134 37.5l-21 280l153 22
l84 -196c24 -7.33301 49.667 -11 77 -11c16 0 31.667 1.33301 47 4s27 5.66699 35 9c5.33301 19.333 10.166 50.166 14.499 92.499s6.5 88.166 6.5 137.499v832l-193 34l20 118h595l20 -118l-142 -34v-865z" />
    <glyph glyph-name="ij" unicode="&#x133;" horiz-adv-x="1352" 
d="M501 152l143 -34l-20 -118h-536l-20 118l143 34v781l-143 34l20 118l413 22v-955zM186 1395c0 47.333 12.499 88.833 37.499 124.5s54.167 53.5 87.5 53.5c48.667 0 90.334 -12.333 125.001 -37s52 -54.667 52 -90c0 -47.333 -12.667 -88.5 -38 -123.5
s-54.333 -52.5 -87 -52.5c-48 0 -89.5 12.333 -124.5 37s-52.5 54 -52.5 88zM1206 -47c0 -142 -28.5 -245.833 -85.5 -311.5s-149.167 -98.5 -276.5 -98.5c-46.667 0 -95 3.66699 -145 11s-89.667 16 -119 26l36 151c38 -10.667 80.333 -20 127 -28s91 -12.333 133 -13
c11.333 22 20.833 52.667 28.5 92s11.5 83.333 11.5 132v1019l-173 34l20 118l443 22v-1154zM890.999 1395c0 47.333 12.499 88.833 37.499 124.5s54.167 53.5 87.5 53.5c48.667 0 90.334 -12.333 125.001 -37s52 -54.667 52 -90c0 -47.333 -12.667 -88.5 -38 -123.5
s-54.333 -52.5 -87 -52.5c-48 0 -89.5 12.333 -124.5 37s-52.5 54 -52.5 88z" />
    <glyph glyph-name="Jcircumflex" unicode="&#x134;" horiz-adv-x="897" 
d="M739 336c0 -116.667 -33.832 -205.498 -101.499 -266.498s-171.167 -91.5 -310.5 -91.5c-48.667 0 -98.667 5.16699 -150 15.5s-96 22.833 -134 37.5l-21 280l153 22l84 -196c24 -7.33301 49.667 -11 77 -11c16 0 31.667 1.33301 47 4s27 5.66699 35 9
c5.33301 19.333 10.166 50.166 14.499 92.499s6.5 88.166 6.5 137.499v832l-193 34l20 118h595l20 -118l-142 -34v-865zM959.001 1470l-175 -10l-213 171l-206 -171l-145 10v32l263 292l223 -10l253 -282v-32z" />
    <glyph glyph-name="jcircumflex" unicode="&#x135;" horiz-adv-x="656" 
d="M510 -47c0 -79.333 -8.50098 -145.333 -25.501 -198s-41.167 -94.667 -72.5 -126s-69.333 -53.5 -114 -66.5s-94.667 -19.5 -150 -19.5c-38.667 0 -74 1.83301 -106 5.5s-59.667 7.83398 -83 12.501c-27.333 5.33301 -52.333 11.666 -75 18.999l36 151
c28 -8 57 -15 87 -21c25.333 -5.33301 53.333 -10 84 -14s60.334 -6 89.001 -6c7.33301 14 14 32 20 54c5.33301 18.667 10 42 14 70s6 61.333 6 100v1019l-193 34l20 118l463 22v-1154zM671.999 1275l-175 -10l-188 219l-181 -219l-145 10v32l223 373l243 -10l223 -363v-32
z" />
    <glyph glyph-name="Kcommaaccent" unicode="&#x136;" horiz-adv-x="1394" 
d="M64 118l143 34v1049l-143 34l20 118h545l20 -118l-142 -34v-467l14 -6l503 486l-109 20l20 119h448l20 -118l-141 -36l-397 -378l442 -674l117 -29l-20 -118h-344l-404 622l-149 -142v-328l142 -34l-20 -118h-545zM627 -128h206v-62l-63 -321h-143v383z" />
    <glyph glyph-name="kcommaaccent" unicode="&#x137;" horiz-adv-x="1274" 
d="M56 118l143 34v1236l-143 34l20 118l413 22v-943l14 -6l388 337l-106 17l20 118h415l20 -118l-112 -27l-325 -264l329 -524l126 -34l-20 -118h-318l-321 510l-110 -89v-269l143 -34l-20 -118h-536zM588 -128h206v-62l-63 -321h-143v383z" />
    <glyph glyph-name="kgreenlandic" unicode="&#x138;" horiz-adv-x="1206" 
d="M56 118l143.001 34.002v781l-143 34l20 118l413 22v-520l10 -4c30 0 56.333 7.5 79 22.5s43.167 34.833 61.5 59.5s35.5 52.667 51.5 84l49.5 96c17 32.667 35.333 64.667 55 96s42.667 59.333 69 84s56.5 44.5 90.5 59.5s74 22.5 120 22.5c24.667 0 47.667 -2.5 69 -7.5
s39.666 -12 54.999 -21s27.5 -19.833 36.5 -32.5s13.5 -26.667 13.5 -42c0 -21.333 -2.83301 -42.333 -8.5 -63s-14 -39 -25 -55s-24.167 -29 -39.5 -39s-32.333 -15 -51 -15c-26 0 -48.5 7 -67.5 21s-38.833 35.667 -59.5 65c-14 0 -27.667 -7.66699 -41 -23
s-27 -35.333 -41 -60s-28.667 -52.834 -44 -84.501s-32.333 -63.834 -51 -96.501l315 -502l126 -34l-20 -118h-318l-281 446c-22 -13.333 -45.667 -24 -71 -32s-53 -12 -83 -12v-250l143 -34l-20 -118h-536z" />
    <glyph glyph-name="Lacute" unicode="&#x139;" horiz-adv-x="1066" 
d="M211 1201l-143 34l20 118h545l20 -118l-142 -34v-1052h266l83 193l154 -22l-25 -320h-901l-20 118l143 34v1049zM200 1503l278 281l282 -10v-66l-395 -248l-165 11v32z" />
    <glyph glyph-name="lacute" unicode="&#x13a;" horiz-adv-x="664" 
d="M199 1388l-143 34l20 118l413 22v-1410l143 -34l-20 -118h-536l-20 118l143 34v1236zM150 1713l278 281l282 -10v-66l-395 -248l-165 11v32z" />
    <glyph glyph-name="Lcommaaccent" unicode="&#x13b;" horiz-adv-x="1066" 
d="M211 1201l-143 34l20 118h545l20 -118l-142 -34v-1052h266l83 193l154 -22l-25 -320h-901l-20 118l143 34v1049zM445 -128h206v-62l-63 -321h-143v383z" />
    <glyph glyph-name="lcommaaccent" unicode="&#x13c;" horiz-adv-x="664" 
d="M199 1388l-143 34l20 118l413 22v-1410l143 -34l-20 -118h-536l-20 118l143 34v1236zM248 -128h206v-62l-63 -321h-143v383z" />
    <glyph glyph-name="Lcaron" unicode="&#x13d;" horiz-adv-x="1066" 
d="M211 1201l-143 34l20 118h545l20 -118l-142 -34v-1052h266l83 193l154 -22l-25 -320h-901l-20 118l143 34v1049zM741 1540h206v-62l-63 -321h-143v383z" />
    <glyph glyph-name="lcaron" unicode="&#x13e;" horiz-adv-x="802" 
d="M199 1388l-143 34l20 118l413 22v-1410l143 -34l-20 -118h-536l-20 118l143 34v1236zM620 1540h206v-62l-63 -321h-143v383z" />
    <glyph glyph-name="Ldot" unicode="&#x13f;" horiz-adv-x="1074" 
d="M211 1201l-143 34l20 118h545l20 -118l-142 -34v-1052h266l83 193l154 -22l-25 -320h-901l-20 118l143 34v1049zM784 648c0 24.667 2.83301 48 8.5 70s13.5 41.5 23.5 58.5s21.5 30.5 34.5 40.5s26.833 15 41.5 15c26 0 50.167 -2.83301 72.5 -8.5
s41.833 -13.5 58.5 -23.5s29.667 -21.667 39 -35s14 -27.666 14 -42.999c0 -24 -2.83301 -47.167 -8.5 -69.5s-13.5 -42 -23.5 -59s-21.667 -30.5 -35 -40.5s-27.333 -15 -42 -15c-26 0 -50 2.83301 -72 8.5s-41.333 13.5 -58 23.5s-29.667 21.667 -39 35
s-14 27.666 -14 42.999z" />
    <glyph glyph-name="ldot" unicode="&#x140;" horiz-adv-x="799" 
d="M199 1388l-143 34l20 118l413 22v-1410l143 -34l-20 -118h-536l-20 118l143 34v1236zM597 648c0 24.667 2.83301 48 8.5 70s13.5 41.5 23.5 58.5s21.5 30.5 34.5 40.5s26.833 15 41.5 15c26 0 50.167 -2.83301 72.5 -8.5s41.833 -13.5 58.5 -23.5s29.667 -21.667 39 -35
s14 -27.666 14 -42.999c0 -24 -2.83301 -47.167 -8.5 -69.5s-13.5 -42 -23.5 -59s-21.667 -30.5 -35 -40.5s-27.333 -15 -42 -15c-26 0 -50 2.83301 -72 8.5s-41.333 13.5 -58 23.5s-29.667 21.667 -39 35s-14 27.666 -14 42.999z" />
    <glyph glyph-name="Lslash" unicode="&#x141;" horiz-adv-x="1066" 
d="M71 559l140 81v561l-143 34l20 118h545l20 -118l-142 -34v-388l289 168v-158l-289 -168v-506h266l83 193l154 -22l-25 -320h-901l-20 118l143 34v329l-140 -81v159z" />
    <glyph glyph-name="lslash" unicode="&#x142;" horiz-adv-x="664" 
d="M8 694l191 110v584l-143 34l20 118l413 22v-592l180 104v-158l-180 -104v-660l143 -34l-20 -118h-536l-20 118l143 34v493l-191 -110v159z" />
    <glyph glyph-name="Nacute" unicode="&#x143;" horiz-adv-x="1579" 
d="M211 1201l-143 34l20 118h520l592 -1101h16v949l-144 34l20 118h447l20 -118l-142 -34v-1201h-399l-591 1100h-16v-948l162 -34l-20 -118h-465l-20 118l143 34v1049zM669 1503l278 281l282 -10v-66l-395 -248l-165 11v32z" />
    <glyph glyph-name="nacute" unicode="&#x144;" horiz-adv-x="1392" 
d="M68 118l143.001 33.999v781l-143 34l20 118l335 22l58 -158c62.667 58 124 98.833 184 122.5s123.333 35.5 190 35.5c113.333 0 199.666 -29 258.999 -87s89 -142.667 89 -254v-614l143 -34l-20 -118h-536l-20 118l143 34v599c0 76.667 -12.167 131.834 -36.5 165.501
s-61.5 50.5 -111.5 50.5c-35.333 0 -75.833 -12.333 -121.5 -37s-93.167 -62 -142.5 -112v-666l143 -34l-20 -118h-536zM677.001 1307l183 363l272 -10v-66l-300 -329l-155 10v32z" />
    <glyph glyph-name="Ncommaaccent" unicode="&#x145;" horiz-adv-x="1579" 
d="M211 1201l-143 34l20 118h520l592 -1101h16v949l-144 34l20 118h447l20 -118l-142 -34v-1201h-399l-591 1100h-16v-948l162 -34l-20 -118h-465l-20 118l143 34v1049zM705 -128h206v-62l-63 -321h-143v383z" />
    <glyph glyph-name="ncommaaccent" unicode="&#x146;" horiz-adv-x="1392" 
d="M68 118l143.001 33.999v781l-143 34l20 118l335 22l58 -158c62.667 58 124 98.833 184 122.5s123.333 35.5 190 35.5c113.333 0 199.666 -29 258.999 -87s89 -142.667 89 -254v-614l143 -34l-20 -118h-536l-20 118l143 34v599c0 76.667 -12.167 131.834 -36.5 165.501
s-61.5 50.5 -111.5 50.5c-35.333 0 -75.833 -12.333 -121.5 -37s-93.167 -62 -142.5 -112v-666l143 -34l-20 -118h-536zM675.001 -128.001h206v-62l-63 -321h-143v383z" />
    <glyph glyph-name="Ncaron" unicode="&#x147;" horiz-adv-x="1579" 
d="M211 1201l-143 34l20 118h520l592 -1101h16v949l-144 34l20 118h447l20 -118l-142 -34v-1201h-399l-591 1100h-16v-948l162 -34l-20 -118h-465l-20 118l143 34v1049zM458 1784l175 10l213 -172l206 172l145 -10v-32l-263 -292l-223 10l-253 282v32z" />
    <glyph glyph-name="ncaron" unicode="&#x148;" horiz-adv-x="1392" 
d="M68 118l143.001 33.999v781l-143 34l20 118l335 22l58 -158c62.667 58 124 98.833 184 122.5s123.333 35.5 190 35.5c113.333 0 199.666 -29 258.999 -87s89 -142.667 89 -254v-614l143 -34l-20 -118h-536l-20 118l143 34v599c0 76.667 -12.167 131.834 -36.5 165.501
s-61.5 50.5 -111.5 50.5c-35.333 0 -75.833 -12.333 -121.5 -37s-93.167 -62 -142.5 -112v-666l143 -34l-20 -118h-536zM454.001 1660l175 10l187 -220l182 220l145 -10v-32l-223 -373l-243 10l-223 363v32z" />
    <glyph glyph-name="napostrophe" unicode="&#x149;" horiz-adv-x="1497" 
d="M173 118l143.001 33.999v781l-143 34l20 118l335 22l58 -158c62.667 58 124 98.833 184 122.5s123.333 35.5 190 35.5c113.333 0 199.666 -29 258.999 -87s89 -142.667 89 -254v-614l143 -34l-20 -118h-536l-20 118l143 34v599c0 76.667 -12.167 131.834 -36.5 165.501
s-61.5 50.5 -111.5 50.5c-35.333 0 -75.833 -12.333 -121.5 -37s-93.167 -62 -142.5 -112v-666l143 -34l-20 -118h-536zM-178.999 1355c0 28 3.3291 54.5029 9.99609 79.5029s15.5 47 26.5 66s23.833 34 38.5 45s30.334 16.5 47.001 16.5c15.333 0 31.333 -1.16699 48 -3.5
s33 -6 49 -11s31.167 -11.5 45.5 -19.5s26.833 -18 37.5 -30c6.66699 -7.33301 13.334 -16.166 20.001 -26.499s12.5 -23 17.5 -38s9 -32.833 12 -53.5s4.5 -45 4.5 -73c0 -40 -3 -78.833 -9 -116.5s-18.167 -75.834 -36.5 -114.501s-44.333 -78.834 -78 -120.501
s-78.167 -86.5 -133.5 -134.5l-82 96c34 28.667 62.667 55.5 86 80.5s42 48.667 56 71s24 43 30 62s9 36.833 9 53.5c0 16 -6.16699 28.167 -18.5 36.5s-28.166 15.166 -47.499 20.499c-39.333 10 -71.166 25.167 -95.499 45.5s-36.5 43.166 -36.5 68.499z" />
    <glyph glyph-name="Eng" unicode="&#x14a;" horiz-adv-x="1579" 
d="M211 1201l-142.997 33.999l20 118h520l592 -1101h16v949l-144 34l20 118h447l20 -118l-142 -34v-1201c0 -91.333 -8.5 -166 -25.5 -224s-41.167 -103.5 -72.5 -136.5s-69.333 -55.833 -114 -68.5s-94.667 -19 -150 -19c-44.667 0 -85.334 2.83301 -122.001 8.5
s-68.667 12.167 -96 19.5c-32 8 -60.667 17.667 -86 29l36 151c42 -12 85 -22.333 129 -31c37.333 -7.33301 78.166 -14.166 122.499 -20.499s86.833 -9.5 127.5 -9.5c9.33301 15.333 17.666 34 24.999 56c6 19.333 11.667 43.833 17 73.5s8 65.5 8 107.5v64h-198l-591 1100
h-16v-948l162 -34l-20 -118h-465l-20 118l143 34v1049z" />
    <glyph glyph-name="eng" unicode="&#x14b;" horiz-adv-x="1307" 
d="M211 933l-143.001 34.001l20 118l335 22l58 -158c18 16.667 38.667 34.167 62 52.5s50.166 35.333 80.499 51s64.5 28.667 102.5 39s81 15.5 129 15.5c52.667 0 100.334 -6.5 143.001 -19.5s79.167 -33.333 109.5 -61s53.833 -63 70.5 -106s25 -94.5 25 -154.5v-813
c0 -79.333 -8.5 -145.333 -25.5 -198s-41.167 -94.667 -72.5 -126s-69.333 -53.5 -114 -66.5s-94.667 -19.5 -150 -19.5c-38.667 0 -74 1.83301 -106 5.5s-59.667 7.83398 -83 12.501c-27.333 5.33301 -52.333 11.666 -75 18.999l36 151c28 -8 57 -15 87 -21
c25.333 -5.33301 53.333 -10 84 -14s60.334 -6 89.001 -6c7.33301 14 14 32 20 54c5.33301 18.667 10 42 14 70s6 61.333 6 100v837c0 40 -3.33301 73.667 -10 101s-16.167 49.5 -28.5 66.5s-27.666 29.333 -45.999 37s-39.5 11.5 -63.5 11.5
c-32 0 -63.833 -7.83301 -95.5 -23.5s-59.834 -32.834 -84.501 -51.501c-29.333 -22 -57.333 -46.667 -84 -74v-666l143 -34l-20 -118h-536l-20 118l143 34v781z" />
    <glyph glyph-name="Omacron" unicode="&#x14c;" horiz-adv-x="1407" 
d="M695 -22c-202 0 -354.001 45.667 -456.001 137s-153 228 -153 410v79c0 262.667 55.333 456.834 166 582.501s271.334 188.5 482.001 188.5c201.333 0 353.833 -45.667 457.5 -137s155.5 -228.333 155.5 -411v-78c0 -256.667 -54.333 -449.334 -163 -578.001
s-271.667 -193 -489 -193zM1047 783c0 144.667 -29.499 254.666 -88.499 329.999s-146.167 113 -261.5 113c-50 0 -97.5 -6.66699 -142.5 -20s-81.5 -29.333 -109.5 -48c-12 -42.667 -24.833 -107 -38.5 -193s-20.5 -173.333 -20.5 -262v-133
c0 -139.333 32.5 -248 97.5 -326s149.5 -117 253.5 -117c53.333 0 103.166 7.33301 149.499 22s80.5 30.334 102.5 47.001c14 50 27.167 117.833 39.5 203.5s18.5 169.167 18.5 250.5v133zM312 1690h810l-20 -160h-810z" />
    <glyph glyph-name="omacron" unicode="&#x14d;" horiz-adv-x="1168" 
d="M566 -22c-160.667 0 -284.833 38.668 -372.5 116.001s-131.5 185.666 -131.5 324.999v93c0 186 48.333 331.667 145 437s225 158 385 158c158.667 0 283.667 -38.333 375 -115s137 -188.667 137 -336v-94c0 -178 -47.667 -319.833 -143 -425.5s-227 -158.5 -395 -158.5z
M814.001 622.001c0 112 -23.168 197.501 -69.501 256.501s-105.166 88.5 -176.499 88.5c-32 0 -62.333 -3.66699 -91 -11s-53.667 -17 -75 -29c-15.333 -46.667 -27.5 -101 -36.5 -163s-13.5 -126 -13.5 -192v-119c0 -106.667 23.667 -189.167 71 -247.5
s105.333 -87.5 174 -87.5c33.333 0 64.5 3.66699 93.5 11s53.5 17 73.5 29c14.667 38 26.667 87.167 36 147.5s14 126.166 14 197.499v119zM234 1493h750l-20 -160h-750z" />
    <glyph glyph-name="Obreve" unicode="&#x14e;" horiz-adv-x="1407" 
d="M695 -22c-202 0 -354.001 45.667 -456.001 137s-153 228 -153 410v79c0 262.667 55.333 456.834 166 582.501s271.334 188.5 482.001 188.5c201.333 0 353.833 -45.667 457.5 -137s155.5 -228.333 155.5 -411v-78c0 -256.667 -54.333 -449.334 -163 -578.001
s-271.667 -193 -489 -193zM1047 783c0 144.667 -29.499 254.666 -88.499 329.999s-146.167 113 -261.5 113c-50 0 -97.5 -6.66699 -142.5 -20s-81.5 -29.333 -109.5 -48c-12 -42.667 -24.833 -107 -38.5 -193s-20.5 -173.333 -20.5 -262v-133
c0 -139.333 32.5 -248 97.5 -326s149.5 -117 253.5 -117c53.333 0 103.166 7.33301 149.499 22s80.5 30.334 102.5 47.001c14 50 27.167 117.833 39.5 203.5s18.5 169.167 18.5 250.5v133zM1073 1749c0 -31.333 -7.16504 -64.166 -21.498 -98.499
s-36.166 -65.833 -65.499 -94.5s-66.333 -52.334 -111 -71.001s-97.334 -28 -158.001 -28s-113.334 9.33301 -158.001 28s-81.667 42.334 -111 71.001s-51.166 60.167 -65.499 94.5s-21.5 67.166 -21.5 98.499l117 10c0 -8 3.16699 -19.5 9.5 -34.5
s18.166 -29.667 35.499 -44s41.5 -26.833 72.5 -37.5s71.5 -16 121.5 -16s90.5 5.33301 121.5 16s55.167 23.167 72.5 37.5s29.166 29 35.499 44s9.5 26.5 9.5 34.5z" />
    <glyph glyph-name="obreve" unicode="&#x14f;" horiz-adv-x="1168" 
d="M566 -22c-160.667 0 -284.833 38.668 -372.5 116.001s-131.5 185.666 -131.5 324.999v93c0 186 48.333 331.667 145 437s225 158 385 158c158.667 0 283.667 -38.333 375 -115s137 -188.667 137 -336v-94c0 -178 -47.667 -319.833 -143 -425.5s-227 -158.5 -395 -158.5z
M814.001 622.001c0 112 -23.168 197.501 -69.501 256.501s-105.166 88.5 -176.499 88.5c-32 0 -62.333 -3.66699 -91 -11s-53.667 -17 -75 -29c-15.333 -46.667 -27.5 -101 -36.5 -163s-13.5 -126 -13.5 -192v-119c0 -106.667 23.667 -189.167 71 -247.5
s105.333 -87.5 174 -87.5c33.333 0 64.5 3.66699 93.5 11s53.5 17 73.5 29c14.667 38 26.667 87.167 36 147.5s14 126.166 14 197.499v119zM966 1592c0 -39.333 -7.16699 -78.5 -21.5 -117.5s-35.166 -74 -62.499 -105s-61.333 -56.167 -102 -75.5s-87.334 -29 -140.001 -29
s-99.334 9.66699 -140.001 29s-74.667 44.5 -102 75.5s-48.166 66 -62.499 105s-21.5 78.167 -21.5 117.5l117 10c0 -12 3.66699 -27 11 -45s19.166 -35.333 35.499 -52s37.833 -30.834 64.5 -42.501s59.334 -17.5 98.001 -17.5s71.334 5.83301 98.001 17.5
s48.167 25.834 64.5 42.501s28.166 34 35.499 52s11 33 11 45z" />
    <glyph glyph-name="Ohungarumlaut" unicode="&#x150;" horiz-adv-x="1407" 
d="M695 -22c-202 0 -354.001 45.667 -456.001 137s-153 228 -153 410v79c0 262.667 55.333 456.834 166 582.501s271.334 188.5 482.001 188.5c201.333 0 353.833 -45.667 457.5 -137s155.5 -228.333 155.5 -411v-78c0 -256.667 -54.333 -449.334 -163 -578.001
s-271.667 -193 -489 -193zM1047 783c0 144.667 -29.499 254.666 -88.499 329.999s-146.167 113 -261.5 113c-50 0 -97.5 -6.66699 -142.5 -20s-81.5 -29.333 -109.5 -48c-12 -42.667 -24.833 -107 -38.5 -193s-20.5 -173.333 -20.5 -262v-133
c0 -139.333 32.5 -248 97.5 -326s149.5 -117 253.5 -117c53.333 0 103.166 7.33301 149.499 22s80.5 30.334 102.5 47.001c14 50 27.167 117.833 39.5 203.5s18.5 169.167 18.5 250.5v133zM394 1503l278 281l282 -10v-66l-395 -248l-165 11v32zM833 1503l278 281l282 -10
v-66l-395 -248l-165 11v32z" />
    <glyph glyph-name="ohungarumlaut" unicode="&#x151;" horiz-adv-x="1168" 
d="M566 -22c-160.667 0 -284.833 38.668 -372.5 116.001s-131.5 185.666 -131.5 324.999v93c0 186 48.333 331.667 145 437s225 158 385 158c158.667 0 283.667 -38.333 375 -115s137 -188.667 137 -336v-94c0 -178 -47.667 -319.833 -143 -425.5s-227 -158.5 -395 -158.5z
M814.001 622.001c0 112 -23.168 197.501 -69.501 256.501s-105.166 88.5 -176.499 88.5c-32 0 -62.333 -3.66699 -91 -11s-53.667 -17 -75 -29c-15.333 -46.667 -27.5 -101 -36.5 -163s-13.5 -126 -13.5 -192v-119c0 -106.667 23.667 -189.167 71 -247.5
s105.333 -87.5 174 -87.5c33.333 0 64.5 3.66699 93.5 11s53.5 17 73.5 29c14.667 38 26.667 87.167 36 147.5s14 126.166 14 197.499v119zM709 1307l183 363l272 -10v-66l-300 -329l-155 10v32zM331 1307l183 363l272 -10v-66l-300 -329l-155 10v32z" />
    <glyph glyph-name="OE" unicode="&#x152;" horiz-adv-x="1913" 
d="M1249 633l0.00195312 -484h411l83 193l124 -23l-24 -319h-894c-36 -7.33301 -73.833 -12.833 -113.5 -16.5s-82.5 -5.5 -128.5 -5.5c-414 0 -621 182.333 -621 547v79c0 125.333 13 236 39 332s65.333 176.5 118 241.5s119.167 114.167 199.5 147.5
s175.166 50 284.499 50c41.333 0 80.166 -1.83301 116.499 -5.5s71.5 -9.16699 105.5 -16.5h864l24 -320l-123 -22l-83 193h-382v-422h287l34 132l119 -20v-374l-119 -20l-34 133h-287zM697.002 1226c-36.667 0 -70.3301 -3.49902 -100.997 -10.499
s-57.334 -14.833 -80.001 -23.5c-26.667 -10 -50.334 -21.333 -71.001 -34c-11.333 -41.333 -21.333 -86 -30 -134c-7.33301 -42 -14 -90.333 -20 -145s-9 -113.334 -9 -176.001v-133c0 -76.667 9.5 -142.834 28.5 -198.501s44.667 -101.667 77 -138
s69.666 -63.166 111.999 -80.499s86.833 -26 133.5 -26c46 0 87.333 3.5 124 10.5s66 13.833 88 20.5v1028c-65.333 26.667 -149.333 40 -252 40z" />
    <glyph glyph-name="oe" unicode="&#x153;" horiz-adv-x="1830" 
d="M1106 513l0.000976562 -65.999c0 -106.667 25.833 -188.167 77.5 -244.5s129.834 -84.5 234.501 -84.5c45.333 0 98 6.66699 158 20s111.667 28.333 155 45v-116c-48.667 -24.667 -111.334 -45.667 -188.001 -63s-154.667 -26 -234 -26c-158 0 -279.667 37.333 -365 112
l-14 13c-92 -83.333 -212.667 -125 -362 -125c-160.667 0 -284.834 38.667 -372.501 116s-131.5 185.666 -131.5 324.999v93c0 186 48.333 331.667 145 437s225 158 385 158c158.667 0 283.667 -38.333 375 -115c6.66699 -6 13 -12 19 -18
c93.333 88.667 217.333 133 372 133c152 0 260.667 -36.167 326 -108.5s98 -190.833 98 -355.5v-130h-678zM816.001 622.001c0 112 -23.168 197.501 -69.501 256.501s-105.166 88.5 -176.499 88.5c-32 0 -62.333 -3.66699 -91 -11s-53.667 -17 -75 -29
c-15.333 -46.667 -27.5 -101 -36.5 -163s-13.5 -126 -13.5 -192v-119c0 -106.667 23.667 -189.167 71 -247.5s105.333 -87.5 174 -87.5c33.333 0 64.5 3.66699 93.5 11s53.5 17 73.5 29c14.667 38 26.667 87.167 36 147.5s14 126.166 14 197.499v8v111zM1154 928.002
c-10.667 -38.667 -20.167 -82.666 -28.5 -131.999s-13.833 -97 -16.5 -143h385c0 116.667 -13.333 198.167 -40 244.5s-72 69.5 -136 69.5c-28 0 -56.167 -3.33301 -84.5 -10s-54.833 -16.334 -79.5 -29.001z" />
    <glyph glyph-name="Racute" unicode="&#x154;" horiz-adv-x="1281" 
d="M213 1201l-143 34.001l20 118h559c150 0 266 -30.833 348 -92.5s123 -152.834 123 -273.501c0 -80 -19 -148.5 -57 -205.5s-93.667 -102.833 -167 -137.5l-6 -19l252 -472l123 -35l-20 -118h-309l-310 591h-113v-439l142 -34l-20 -118h-545l-20 118l143 34v1049z
M513 1204l-0.00195312 -464.001h73c46.667 0 87.334 2.33301 122.001 7s62 11.334 82 20.001c8 27.333 14.333 58.833 19 94.5s7 71.5 7 107.5c0 90.667 -20.667 152.5 -62 185.5s-104.666 49.5 -189.999 49.5h-51zM397.998 1503l278 281l282 -10v-66l-395 -248l-165 11v32z
" />
    <glyph glyph-name="racute" unicode="&#x155;" horiz-adv-x="919" 
d="M211 933l-143 33.999l20 118l335 22l58 -158c29.333 54.667 65.333 94.667 108 120s92.334 38 149.001 38c26.667 0 54.667 -3.66699 84 -11s56.333 -17.666 81 -30.999l-25 -303h-192l-27 189c-4.66699 1.33301 -9.33398 2.33301 -14.001 3s-9 1 -13 1
c-20 0 -41.5 -12.167 -64.5 -36.5s-45.167 -57.833 -66.5 -100.5v-666l176 -34l-20 -118h-569l-20 118l143 34v781zM378 1307l183 363l272 -10v-66l-300 -329l-155 10v32z" />
    <glyph glyph-name="Rcommaaccent" unicode="&#x156;" horiz-adv-x="1281" 
d="M213 1201l-143 34.001l20 118h559c150 0 266 -30.833 348 -92.5s123 -152.834 123 -273.501c0 -80 -19 -148.5 -57 -205.5s-93.667 -102.833 -167 -137.5l-6 -19l252 -472l123 -35l-20 -118h-309l-310 591h-113v-439l142 -34l-20 -118h-545l-20 118l143 34v1049z
M513 1204l-0.00195312 -464.001h73c46.667 0 87.334 2.33301 122.001 7s62 11.334 82 20.001c8 27.333 14.333 58.833 19 94.5s7 71.5 7 107.5c0 90.667 -20.667 152.5 -62 185.5s-104.666 49.5 -189.999 49.5h-51zM588.998 -128h206v-62l-63 -321h-143v383z" />
    <glyph glyph-name="rcommaaccent" unicode="&#x157;" horiz-adv-x="919" 
d="M211 933l-143 33.999l20 118l335 22l58 -158c29.333 54.667 65.333 94.667 108 120s92.334 38 149.001 38c26.667 0 54.667 -3.66699 84 -11s56.333 -17.666 81 -30.999l-25 -303h-192l-27 189c-4.66699 1.33301 -9.33398 2.33301 -14.001 3s-9 1 -13 1
c-20 0 -41.5 -12.167 -64.5 -36.5s-45.167 -57.833 -66.5 -100.5v-666l176 -34l-20 -118h-569l-20 118l143 34v781zM269 -128.001h206v-62l-63 -321h-143v383z" />
    <glyph glyph-name="Rcaron" unicode="&#x158;" horiz-adv-x="1281" 
d="M213 1201l-143 34.001l20 118h559c150 0 266 -30.833 348 -92.5s123 -152.834 123 -273.501c0 -80 -19 -148.5 -57 -205.5s-93.667 -102.833 -167 -137.5l-6 -19l252 -472l123 -35l-20 -118h-309l-310 591h-113v-439l142 -34l-20 -118h-545l-20 118l143 34v1049z
M513 1204l-0.00195312 -464.001h73c46.667 0 87.334 2.33301 122.001 7s62 11.334 82 20.001c8 27.333 14.333 58.833 19 94.5s7 71.5 7 107.5c0 90.667 -20.667 152.5 -62 185.5s-104.666 49.5 -189.999 49.5h-51zM186.998 1784l175 10l213 -172l206 172l145 -10v-32
l-263 -292l-223 10l-253 282v32z" />
    <glyph glyph-name="rcaron" unicode="&#x159;" horiz-adv-x="919" 
d="M211 933l-143 33.999l20 118l335 22l58 -158c29.333 54.667 65.333 94.667 108 120s92.334 38 149.001 38c26.667 0 54.667 -3.66699 84 -11s56.333 -17.666 81 -30.999l-25 -303h-192l-27 189c-4.66699 1.33301 -9.33398 2.33301 -14.001 3s-9 1 -13 1
c-20 0 -41.5 -12.167 -64.5 -36.5s-45.167 -57.833 -66.5 -100.5v-666l176 -34l-20 -118h-569l-20 118l143 34v781zM156 1660l175 10l187 -220l182 220l145 -10v-32l-223 -373l-243 10l-223 363v32z" />
    <glyph glyph-name="Sacute" unicode="&#x15a;" horiz-adv-x="1130" 
d="M664 813c154 -86.667 260.167 -162.833 318.5 -228.5s87.5 -145.5 87.5 -239.5c0 -116.667 -48.667 -207 -146 -271s-230.333 -96 -399 -96c-77.333 0 -151.666 5.66699 -222.999 17s-132 26.666 -182 45.999l-21 279l167 25l84 -197
c27.333 -6.66699 57.5 -11.834 90.5 -15.501s66.167 -5.5 99.5 -5.5c35.333 0 70.666 2.66699 105.999 8s66.666 12 93.999 20c8 16 15 36 21 60s9 47.667 9 71c0 53.333 -21 100 -63 140s-118.667 93.333 -230 160c-170 98 -278.667 177 -326 237s-71.333 130.333 -72 211
c0 108 47.167 191.833 141.5 251.5s224.5 89.5 390.5 89.5c67.333 0 133.5 -4.66699 198.5 -14s122.833 -22 173.5 -38l21 -290l-155 -22l-83 197c-26 6 -53.833 10.5 -83.5 13.5s-58.834 4.5 -87.501 4.5c-33.333 0 -66.666 -2.33301 -99.999 -7
s-65.666 -11.667 -96.999 -21c-5.33301 -17.333 -9.83301 -36.666 -13.5 -57.999s-5.5 -41.666 -5.5 -60.999c0 -42 16.5 -78.667 49.5 -110s111.5 -83.333 235.5 -156zM429 1503l278 281l282 -10v-66l-395 -248l-165 11v32z" />
    <glyph glyph-name="sacute" unicode="&#x15b;" horiz-adv-x="962" 
d="M591 664c123.333 -66.667 208.666 -125.997 255.999 -177.997s71 -118.667 71 -200c0 -98 -40.833 -173.833 -122.5 -227.5s-196.834 -80.5 -345.501 -80.5c-71.333 0 -138.833 6.5 -202.5 19.5s-118.167 29.833 -163.5 50.5l-10 260l169 20l59 -189
c22.667 -6.66699 47.334 -11.834 74.001 -15.501s53.667 -5.5 81 -5.5c30.667 0 59.667 1.83301 87 5.5s53 8.83398 77 15.501c2.66699 10.667 4.5 22.834 5.5 36.501s1.5 26.834 1.5 39.501c0 43.333 -16.5 81 -49.5 113s-100.167 76.667 -201.5 134
c-114.667 62.667 -195.167 118.167 -241.5 166.5s-69.5 111.5 -69.5 189.5c0 89.333 39.5 159.833 118.5 211.5s192.5 77.5 340.5 77.5c52.667 0 109.167 -5.66699 169.5 -17s118.833 -28.333 175.5 -51l9 -261l-169 -20l-61 194
c-21.333 5.33301 -43.5 9.16602 -66.5 11.499s-44.5 3.5 -64.5 3.5c-25.333 0 -51.833 -1.83301 -79.5 -5.5s-52.167 -8.83398 -73.5 -15.501c-3.33301 -10.667 -5.66602 -22.334 -6.99902 -35.001s-2 -25.334 -2 -38.001c0 -31.333 14.333 -60.333 43 -87
s92.667 -67.334 192 -122.001zM403 1307l183 363l272 -10v-66l-300 -329l-155 10v32z" />
    <glyph glyph-name="Scircumflex" unicode="&#x15c;" horiz-adv-x="1130" 
d="M664 813c154 -86.667 260.167 -162.833 318.5 -228.5s87.5 -145.5 87.5 -239.5c0 -116.667 -48.667 -207 -146 -271s-230.333 -96 -399 -96c-77.333 0 -151.666 5.66699 -222.999 17s-132 26.666 -182 45.999l-21 279l167 25l84 -197
c27.333 -6.66699 57.5 -11.834 90.5 -15.501s66.167 -5.5 99.5 -5.5c35.333 0 70.666 2.66699 105.999 8s66.666 12 93.999 20c8 16 15 36 21 60s9 47.667 9 71c0 53.333 -21 100 -63 140s-118.667 93.333 -230 160c-170 98 -278.667 177 -326 237s-71.333 130.333 -72 211
c0 108 47.167 191.833 141.5 251.5s224.5 89.5 390.5 89.5c67.333 0 133.5 -4.66699 198.5 -14s122.833 -22 173.5 -38l21 -290l-155 -22l-83 197c-26 6 -53.833 10.5 -83.5 13.5s-58.834 4.5 -87.501 4.5c-33.333 0 -66.666 -2.33301 -99.999 -7
s-65.666 -11.667 -96.999 -21c-5.33301 -17.333 -9.83301 -36.666 -13.5 -57.999s-5.5 -41.666 -5.5 -60.999c0 -42 16.5 -78.667 49.5 -110s111.5 -83.333 235.5 -156zM965 1470l-175 -10l-213 171l-206 -171l-145 10v32l263 292l223 -10l253 -282v-32z" />
    <glyph glyph-name="scircumflex" unicode="&#x15d;" horiz-adv-x="962" 
d="M591 664c123.333 -66.667 208.666 -125.997 255.999 -177.997s71 -118.667 71 -200c0 -98 -40.833 -173.833 -122.5 -227.5s-196.834 -80.5 -345.501 -80.5c-71.333 0 -138.833 6.5 -202.5 19.5s-118.167 29.833 -163.5 50.5l-10 260l169 20l59 -189
c22.667 -6.66699 47.334 -11.834 74.001 -15.501s53.667 -5.5 81 -5.5c30.667 0 59.667 1.83301 87 5.5s53 8.83398 77 15.501c2.66699 10.667 4.5 22.834 5.5 36.501s1.5 26.834 1.5 39.501c0 43.333 -16.5 81 -49.5 113s-100.167 76.667 -201.5 134
c-114.667 62.667 -195.167 118.167 -241.5 166.5s-69.5 111.5 -69.5 189.5c0 89.333 39.5 159.833 118.5 211.5s192.5 77.5 340.5 77.5c52.667 0 109.167 -5.66699 169.5 -17s118.833 -28.333 175.5 -51l9 -261l-169 -20l-61 194
c-21.333 5.33301 -43.5 9.16602 -66.5 11.499s-44.5 3.5 -64.5 3.5c-25.333 0 -51.833 -1.83301 -79.5 -5.5s-52.167 -8.83398 -73.5 -15.501c-3.33301 -10.667 -5.66602 -22.334 -6.99902 -35.001s-2 -25.334 -2 -38.001c0 -31.333 14.333 -60.333 43 -87
s92.667 -67.334 192 -122.001zM870 1275l-175 -10l-188 219l-181 -219l-145 10v32l223 373l243 -10l223 -363v-32z" />
    <glyph glyph-name="Scedilla" unicode="&#x15e;" horiz-adv-x="1130" 
d="M664 813c154 -86.667 260.172 -162.834 318.505 -228.501s87.5 -145.5 87.5 -239.5c0 -116.667 -48.667 -207 -146 -271c-77.333 -50.667 -177.333 -81.334 -300 -92.001l-30 -77c31.333 -6 59.666 -13.667 84.999 -23s46.833 -21.166 64.5 -35.499
s31.334 -31.333 41.001 -51s14.5 -43.167 14.5 -70.5c0 -26.667 -5.83301 -51.167 -17.5 -73.5s-28.334 -41.5 -50.001 -57.5s-47.834 -28.5 -78.501 -37.5s-64.667 -13.5 -102 -13.5c-30.667 0 -58.667 2.33301 -84 7s-47.333 10 -66 16c-22 7.33301 -42 15.333 -60 24v113
c18.667 -7.33301 38.334 -14 59.001 -20c17.333 -5.33301 36.666 -10 57.999 -14s42.666 -6 63.999 -6c24.667 0 44 1 58 3l21 4c0.666992 4.66699 1.66699 9.66699 3 15c1.33301 4.66699 2.33301 9.5 3 14.5s1 10.167 1 15.5c0 11.333 -2.33301 21.5 -7 30.5
s-12.667 17 -24 24s-26.333 13.333 -45 19s-42.334 10.834 -71.001 15.501l-46 72l38 104c-52 2.66699 -102.333 7.66699 -151 15c-71.333 11.333 -132 26.666 -182 45.999l-21 279l167 25l84 -197c27.333 -6.66699 57.5 -11.834 90.5 -15.501s66.167 -5.5 99.5 -5.5
c35.333 0 70.666 2.66699 105.999 8s66.666 12 93.999 20c8 16 15 36 21 60s9 47.667 9 71c0 53.333 -21 100 -63 140s-118.667 93.333 -230 160c-170 98 -278.667 177 -326 237s-71.333 130.333 -72 211c0 108 47.167 191.833 141.5 251.5s224.5 89.5 390.5 89.5
c67.333 0 133.5 -4.66699 198.5 -14s122.833 -22 173.5 -38l21 -290l-155 -22l-83 197c-26 6 -53.833 10.5 -83.5 13.5s-58.834 4.5 -87.501 4.5c-33.333 0 -66.666 -2.33301 -99.999 -7s-65.666 -11.667 -96.999 -21c-5.33301 -17.333 -9.83301 -36.666 -13.5 -57.999
s-5.5 -41.666 -5.5 -60.999c0 -42 16.5 -78.667 49.5 -110s111.5 -83.333 235.5 -156z" />
    <glyph glyph-name="scedilla" unicode="&#x15f;" horiz-adv-x="962" 
d="M591 664c123.333 -66.667 208.667 -126 256 -178s71 -118.667 71 -200c0 -98 -41 -174 -123 -228c-64.667 -42 -150 -67.333 -256 -76l-30 -77c31.333 -6 59.666 -13.667 84.999 -23s46.833 -21.166 64.5 -35.499s31.334 -31.333 41.001 -51s14.5 -43.167 14.5 -70.5
c0 -26.667 -5.83301 -51.167 -17.5 -73.5s-28.334 -41.5 -50.001 -57.5s-47.834 -28.5 -78.501 -37.5s-64.667 -13.5 -102 -13.5c-30.667 0 -58.667 2.33301 -84 7s-47.333 10 -66 16c-22 7.33301 -42 15.333 -60 24v113c18.667 -7.33301 38.334 -14 59.001 -20
c17.333 -5.33301 36.666 -10 57.999 -14s42.666 -6 63.999 -6c24.667 0 44 1 58 3l21 4c0.666992 4.66699 1.66699 9.66699 3 15c1.33301 4.66699 2.33301 9.5 3 14.5s1 10.167 1 15.5c0 11.333 -2.33301 21.5 -7 30.5s-12.667 17 -24 24s-26.333 13.333 -45 19
s-42.334 10.834 -71.001 15.501l-46 72l38 105c-41.333 3.33301 -81.666 9 -120.999 17c-63.333 12.667 -117.666 29.334 -162.999 50.001l-10 260l169 20l59 -189c22.667 -6.66699 47.334 -11.834 74.001 -15.501s53.667 -5.5 81 -5.5c30.667 0 59.667 1.83301 87 5.5
s53 8.83398 77 15.501c2.66699 10.667 4.5 22.834 5.5 36.501s1.5 26.834 1.5 39.501c0 43.333 -16.5 81 -49.5 113s-100.167 76.667 -201.5 134c-114.667 62.667 -195.167 118.167 -241.5 166.5s-69.5 111.5 -69.5 189.5c0 89.333 39.5 159.833 118.5 211.5
s192.5 77.5 340.5 77.5c52.667 0 109.167 -5.66699 169.5 -17s118.833 -28.333 175.5 -51l9 -261l-169 -20l-61 194c-21.333 5.33301 -43.5 9.16602 -66.5 11.499s-44.5 3.5 -64.5 3.5c-25.333 0 -51.833 -1.83301 -79.5 -5.5s-52.167 -8.83398 -73.5 -15.501
c-3.33301 -10.667 -5.66602 -22.334 -6.99902 -35.001s-2 -25.334 -2 -38.001c0 -31.333 14.333 -60.333 43 -87s92.667 -67.334 192 -122.001z" />
    <glyph glyph-name="Scaron" unicode="&#x160;" horiz-adv-x="1130" 
d="M664 813c154 -86.667 260.167 -162.833 318.5 -228.5s87.5 -145.5 87.5 -239.5c0 -116.667 -48.667 -207 -146 -271s-230.333 -96 -399 -96c-77.333 0 -151.666 5.66699 -222.999 17s-132 26.666 -182 45.999l-21 279l167 25l84 -197
c27.333 -6.66699 57.5 -11.834 90.5 -15.501s66.167 -5.5 99.5 -5.5c35.333 0 70.666 2.66699 105.999 8s66.666 12 93.999 20c8 16 15 36 21 60s9 47.667 9 71c0 53.333 -21 100 -63 140s-118.667 93.333 -230 160c-170 98 -278.667 177 -326 237s-71.333 130.333 -72 211
c0 108 47.167 191.833 141.5 251.5s224.5 89.5 390.5 89.5c67.333 0 133.5 -4.66699 198.5 -14s122.833 -22 173.5 -38l21 -290l-155 -22l-83 197c-26 6 -53.833 10.5 -83.5 13.5s-58.834 4.5 -87.501 4.5c-33.333 0 -66.666 -2.33301 -99.999 -7
s-65.666 -11.667 -96.999 -21c-5.33301 -17.333 -9.83301 -36.666 -13.5 -57.999s-5.5 -41.666 -5.5 -60.999c0 -42 16.5 -78.667 49.5 -110s111.5 -83.333 235.5 -156zM218 1784l175 10l213 -172l206 172l145 -10v-32l-263 -292l-223 10l-253 282v32z" />
    <glyph glyph-name="scaron" unicode="&#x161;" horiz-adv-x="962" 
d="M591 664c123.333 -66.667 208.666 -125.997 255.999 -177.997s71 -118.667 71 -200c0 -98 -40.833 -173.833 -122.5 -227.5s-196.834 -80.5 -345.501 -80.5c-71.333 0 -138.833 6.5 -202.5 19.5s-118.167 29.833 -163.5 50.5l-10 260l169 20l59 -189
c22.667 -6.66699 47.334 -11.834 74.001 -15.501s53.667 -5.5 81 -5.5c30.667 0 59.667 1.83301 87 5.5s53 8.83398 77 15.501c2.66699 10.667 4.5 22.834 5.5 36.501s1.5 26.834 1.5 39.501c0 43.333 -16.5 81 -49.5 113s-100.167 76.667 -201.5 134
c-114.667 62.667 -195.167 118.167 -241.5 166.5s-69.5 111.5 -69.5 189.5c0 89.333 39.5 159.833 118.5 211.5s192.5 77.5 340.5 77.5c52.667 0 109.167 -5.66699 169.5 -17s118.833 -28.333 175.5 -51l9 -261l-169 -20l-61 194
c-21.333 5.33301 -43.5 9.16602 -66.5 11.499s-44.5 3.5 -64.5 3.5c-25.333 0 -51.833 -1.83301 -79.5 -5.5s-52.167 -8.83398 -73.5 -15.501c-3.33301 -10.667 -5.66602 -22.334 -6.99902 -35.001s-2 -25.334 -2 -38.001c0 -31.333 14.333 -60.333 43 -87
s92.667 -67.334 192 -122.001zM176 1660l175 10l187 -220l182 220l145 -10v-32l-223 -373l-243 10l-223 363v32z" />
    <glyph glyph-name="Tcommaaccent" unicode="&#x162;" horiz-adv-x="1069" 
d="M384 1204l-204.996 -0.00195312l-62 -170l-149 9l15 310h1102l14 -310l-148 -9l-63 170h-204v-1052l143 -34l-20 -118h-204l-37 -95c31.333 -6 59.666 -13.667 84.999 -23s46.833 -21.166 64.5 -35.499s31.334 -31.333 41.001 -51s14.5 -43.167 14.5 -70.5
c0 -26.667 -5.83301 -51.167 -17.5 -73.5s-28.334 -41.5 -50.001 -57.5s-47.834 -28.5 -78.501 -37.5s-64.667 -13.5 -102 -13.5c-30.667 0 -58.667 2.33301 -84 7s-47.333 10 -66 16c-22 7.33301 -42 15.333 -60 24v113c18.667 -7.33301 38.334 -14 59.001 -20
c17.333 -5.33301 36.666 -10 57.999 -14s42.666 -6 63.999 -6c24.667 0 44 1 58 3l21 4c0.666992 4.66699 1.66699 9.66699 3 15c1.33301 4.66699 2.33301 9.5 3 14.5s1 10.167 1 15.5c0 11.333 -2.33301 21.5 -7 30.5s-12.667 17 -24 24s-26.333 13.333 -45 19
s-42.334 10.834 -71.001 15.501l-46 72l45 124h-171l-20 118l143 34v1052z" />
    <glyph glyph-name="tcommaaccent" unicode="&#x163;" horiz-adv-x="772" 
d="M699 1085l20.0059 -119.003l-270 -32v-642c0 -55.333 8.83301 -98.166 26.5 -128.499s52.5 -45.5 104.5 -45.5c19.333 0 41.666 3.83301 66.999 11.5s49.666 16.834 72.999 27.501v-114c-36 -20.667 -77.333 -36.667 -124 -48c-30.667 -7.33301 -61 -12.333 -91 -15
l-29 -75c31.333 -6 59.666 -13.667 84.999 -23s46.833 -21.166 64.5 -35.499s31.334 -31.333 41.001 -51s14.5 -43.167 14.5 -70.5c0 -26.667 -5.83301 -51.167 -17.5 -73.5s-28.334 -41.5 -50.001 -57.5s-47.834 -28.5 -78.501 -37.5s-64.667 -13.5 -102 -13.5
c-30.667 0 -58.667 2.33301 -84 7s-47.333 10 -66 16c-22 7.33301 -42 15.333 -60 24v113c18.667 -7.33301 38.334 -14 59.001 -20c17.333 -5.33301 36.666 -10 57.999 -14s42.666 -6 63.999 -6c24.667 0 44 1 58 3l21 4c0.666992 4.66699 1.66699 9.66699 3 15
c1.33301 4.66699 2.33301 9.5 3 14.5s1 10.167 1 15.5c0 11.333 -2.33301 21.5 -7 30.5s-12.667 17 -24 24s-26.333 13.333 -45 19s-42.334 10.834 -71.001 15.501l-46 72l42 114c-48 11.333 -85.333 30.666 -112 57.999c-45.333 47.333 -68 121.333 -68 222v664l-151 32
l20 119h131l73 293l217 -20v-273h250z" />
    <glyph glyph-name="Tcaron" unicode="&#x164;" horiz-adv-x="1207" 
d="M454 1204h-235l-62 -170l-149 9l15 310h1162l14 -310l-148 -9l-63 170h-234v-1052l143 -34l-20 -118h-546l-20 118l143 34v1052zM229 1784l175 10l213 -172l206 172l145 -10v-32l-263 -292l-223 10l-253 282v32z" />
    <glyph glyph-name="tcaron" unicode="&#x165;" horiz-adv-x="772" 
d="M699 1085l20.0039 -119.002l-270 -32v-642c0 -55.333 8.83301 -98.166 26.5 -128.499s52.5 -45.5 104.5 -45.5c19.333 0 41.666 3.83301 66.999 11.5s49.666 16.834 72.999 27.501v-114c-36 -20.667 -77.333 -36.667 -124 -48s-93.334 -17 -140.001 -17
c-106.667 0 -182.834 23.5 -228.501 70.5s-68.5 120.833 -68.5 221.5v664l-151 32l20 119h131l73 293l217 -20v-273h250zM580.004 1540h206v-62l-63 -321h-143v383z" />
    <glyph glyph-name="Tbar" unicode="&#x166;" horiz-adv-x="1147" 
d="M180 706h244v498h-205l-62 -170l-149 9l15 310h1102l14 -310l-148 -9l-63 170h-204v-498h234v-157h-234v-397l143 -34l-20 -118h-546l-20 118l143 34v397h-244v157z" />
    <glyph glyph-name="tbar" unicode="&#x167;" horiz-adv-x="772" 
d="M-8 612l167.004 -0.00195312v322l-151 32l20 119h131l73 293l217 -20v-273h250l20 -119l-270 -32v-322h276v-157h-276v-163c0 -55.333 8.83301 -98.166 26.5 -128.499s52.5 -45.5 104.5 -45.5c19.333 0 41.666 3.83301 66.999 11.5s49.666 16.834 72.999 27.501v-114
c-36 -20.667 -77.333 -36.667 -124 -48s-93.334 -17 -140.001 -17c-106.667 0 -182.834 23.5 -228.501 70.5s-68.5 120.833 -68.5 221.5v185h-167v157z" />
    </font>
</defs>
</svg>
